.
Авторизация | Регистрация
Хочешь лучшие торренты? Добавь свой email!
Добавить
» » Братья ветра / Brothers of the Wind (2015) BDRip 1080p от ExKinoRay | L торрент скачать бесплатно




    Братья ветра / Brothers of the Wind (2015) BDRip 1080p от ExKinoRay | L торрент скачать бесплатно

    Опубликовал: Админ | Дата: 29-07-2016, 05:01 | Просмотров: 63



    Детально о кино
    Русское название: Братья ветра
    Русское название в мировом прокате: Brothers of the Wind
    Создали в: 2015
    Категория жанра: Приключения, драма, семейный
    Главный режиссер: Херардо Оливарес, Отмар Пенкер

    Актеры
    Жан Рено, Мануэль Камачо, Тобиас Моретти, Эва Куэн

    Сюжет фильма

    Главный герой картины, мальчик по имени Лукас (Мануэль Камачо), живёт в горной местности. Найдя в лесу раненого птенца орла, решает излечить его сломанные крылья и научить жить в пустыне. Задача очень трудная, потому что отец мальчика не одобряет его планы, и орлёнок сначала очень настороженно относится к своему спасителю. Однако, со временем отношения Лукаса с дикой птицей превращаются в необыкновенную дружбу и приводят к увлекательным приключениям. Лукасу большую поддержку оказывает таинственный Данзер (Жан Рено), который как никто знает привычки диких животных и открывает мальчику их необычный мир...

    Снималось в: Австрия
    Киностудия: Terra Mater Factual Studios
    Время просмотра: 01: 41: 36
    Перевод текста: Любительский многоголосый (закадровый) | GreenРай
    Файл
    Кодек для видео: MPEG-4
    Качество фильма: BDRip 720p
    Информация о видео: 1920x1040, 12.2 Mbit/s, 23.976 fps
    Информация о звуке:
    Информация о звуке #01: 48 kHz, AC3, 5.1, 448 Kbps | Любительский многоголосый (закадровый) | GreenРай |
    Информация о звуке #02: 48 kHz, DTS, 5.1, 1510 kbps | Оригинал |
    Субтитры: Английские

    MI
    General
    Unique ID : 181464698711379546443091867902871420895 (0x8884D467DB9D8B848241E05EA3353FDF)
    Complete name : G: VideoBrothers.of.the.Wind.2015.MVO.BDRip.1080p.ExKinoRay.mkv
    Format : Matroska
    Format version : Version 4/Version 2
    File size : 9.66 GiB
    Duration : 1h 37mn
    Overall bit rate : 14.1 Mbps
    Movie name : Brothers.of.the.Wind.2015.MVO.BDRip.1080p.ExKinoRay
    Encoded date : UTC 2016-07-27 06: 08: 04
    Writing application : mkvmerge v8.3.0 (;Over the Horizon;) 64bit
    Writing library : libebml v1.3.1 + libmatroska v1.4.2
    Video
    ID : 1
    Format : AVC
    Format/Info : Advanced Video Codec
    Format profile : High@L4.1
    Format settings, CABAC : Yes
    Format settings, ReFrames : 4 frames
    Codec ID : V_MPEG4/ISO/AVC
    Duration : 1h 37mn
    Bit rate : 12.2 Mbps
    Width : 1 920 pixels
    Height : 1 040 pixels
    Display aspect ratio : 1.85: 1
    Frame rate mode : Constant
    Frame rate : 23.976 (24000/1001) fps
    Color space : YUV
    Chroma subsampling : 4: 2: 0
    Bit depth : 8 bits
    Scan type : Progressive
    Bits/(Pixel*Frame) : 0.254
    Stream size : 8.32 GiB (86%)
    Writing library : x264 core 148 r2692+2+42 c1a827b Yuuki 8-bit@4: 2: 0 X86_64GCC 5.3.0
    Encoding settings : cabac=1/ref=4/deblock=1: -3: -3/analyse=0x3: 0x113/me=umh/subme=11/psy=1/fade_compensate=0.00/psy_rd=1.00: 0.05/mixed_ref=1/me_range=32/chroma_me=1/trellis=2/8x8dct=1/cqm=0/deadzone=21, 11/fast_pskip=0/chroma_qp_offset=-2/threads=60/lookahead_threads=8/sliced_threads=0/nr=0/decimate=1/interlaced=0/bluray_compat=0/constrained_intra=0/fgo=0/bframes=8/b_pyramid=2/b_adapt=2/b_bias=0/direct=3/weightb=1/open_gop=0/weightp=2/keyint=250/keyint_min=23/scenecut=40/intra_refresh=0/rc_lookahead=40/rc=crf/mbtree=0/crf=18.3000/qcomp=0.60/qpmin=0: 0: 0/qpmax=69: 69: 69/qpstep=4/vbv_maxrate=50000/vbv_bufsize=40000/crf_max=0.0/nal_hrd=none/filler=0/ip_ratio=1.40/pb_ratio=1.30/aq=3: 0.90
    Language : English
    Default : Yes
    Forced : No
    Audio #1
    ID : 2
    Format : AC-3
    Format/Info : Audio Coding 3
    Mode extension : CM (complete main)
    Format settings, Endianness : Big
    Codec ID : A_AC3
    Duration : 1h 37mn
    Bit rate mode : Constant
    Bit rate : 448 Kbps
    Channel(s) : 6 channels
    Channel positions : Front: L C R, Side: L R, LFE
    Sampling rate : 48.0 KHz
    Frame rate : 31.250 fps (1536 spf)
    Compression mode : Lossy
    Delay relative to video : 4ms
    Stream size : 314 MiB (3%)
    Title : MVO
    Language : Russian
    Default : Yes
    Forced : No
    Audio #2
    ID : 3
    Format : DTS
    Format/Info : Digital Theater Systems
    Mode : 16
    Format settings, Endianness : Big
    Codec ID : A_DTS
    Duration : 1h 37mn
    Bit rate mode : Constant
    Bit rate : 1 509 Kbps
    Channel(s) : 6 channels
    Channel positions : Front: L C R, Side: L R, LFE
    Sampling rate : 48.0 KHz
    Frame rate : 93.750 fps (512 spf)
    Bit depth : 24 bits
    Compression mode : Lossy
    Stream size : 1.03 GiB (11%)
    Title : Original
    Language : English
    Default : No
    Forced : No
    Text
    ID : 4
    Format : UTF-8
    Codec ID : S_TEXT/UTF8
    Codec ID/Info : UTF-8 Plain Text
    Duration : 1h 30mn
    Bit rate : 14 bps
    Count of elements : 430
    Stream size : 9.92 KiB (0%)
    Title : Full
    Language : English
    Default : No
    Forced : No
    Menu
    00: 00: 00.000 : en: 00: 00: 00.000
    00: 09: 42.540 : en: 00: 09: 42.540
    00: 18: 34.780 : en: 00: 18: 34.780
    00: 28: 05.350 : en: 00: 28: 05.350
    00: 37: 14.524 : en: 00: 37: 14.524
    00: 47: 48.532 : en: 00: 47: 48.532
    00: 56: 46.903 : en: 00: 56: 46.903
    01: 06: 20.018 : en: 01: 06: 20.018
    01: 15: 06.210 : en: 01: 15: 06.210
    01: 22: 52.634 : en: 01: 22: 52.634
    01: 28: 54.287 : en: 01: 28: 54.287
    01: 33: 38.238 : en: 01: 33: 38.238
    Скриншоты

    Релиз подготовил: Автор релиза:

    Онлайн видео Братья ветра


    Размер скачиваемого торрента: 9.66 GB (10368940046 Bytes)

    Братья ветра/Brothers of the Wind (2015) BDRip 1080p от ExKinoRay | L
    загрузка...
    Рейтинг →
     (голосов: 1, оценка 4/5, голосовать можно 1 раз )

    Другие торренты по теме:

  • Братья ветра / Brothers of the Wind (2015) BDRip 1080p | L | СПД
  • Братья ветра / Brothers of the Wind (2015) BDRemux 1080p от ExKinoRay | L


    • Комментарии (0):

      Информация

      Информация

        Посетители, находящиеся в группе Гости, не могут оставлять комментарии в данной новости.

        ↓ Меню



        ↓ Опрос

        А Вы добавили сайт в закладки?
        Да
        Не


        Top 10 за месяц (Фильмы)