.
Авторизация | Регистрация
Хочешь лучшие торренты? Добавь свой email!
Добавить
» » Присмотри за Сюзи / Gib acht auf Susi! (1968) TVRip | A торрент скачать бесплатно




    Присмотри за Сюзи / Gib acht auf Susi! (1968) TVRip | A торрент скачать бесплатно

    Опубликовал: Админ | Дата: 31-07-2016, 05:00 | Просмотров: 54



    Детально о кино
    Русское название: Присмотри за Сюзи
    Русское название в мировом прокате: Gib acht auf Susi!
    Создали в: 1968
    Категория жанра: семейный, комедия
    Главный режиссер: Клаус Гендрис

    Актеры
    Дорит Габлер, Лисси Темпельхоф, Йохен Томас, Каспар Эйхель, Ханс-Герд Сонненбург, Фред Ленц, Ронни Мудлафф, Ирен Фишер, Гельмут Без, Хайнц Хеллмих, Роланд Кнаппе

    Сюжет фильма

    На десятилетнем Михи лежит серьезная ответственность. После того как его родители официально развелись, он должен присматривать за своей старшей сестрой Сюзи, которая готова менять поклонников каждый день, ну или почти каждый день. Для Михи и его приятеля лучше проводить время, как свойственно мальчишкам их возраста, например, изготовить порох и применить его. А тут старшая сестра! И все бы ничего, но у нее появился новый почитатель - Бастиан Краузе, который своими замашками явно не приглянулся младшему брату Сюзи. Перед Михи и его другом встает задача - отвадить Бастиана от Сюзи. Но эта задача будет посложней, чем изготовить порох.

    Создали в: ГДР/Deutscher Fernsehfunk (DFF)
    Время просмотра: 01: 18: 23
    Перевод текста: авторский одноголосый Юрий Муравский
    Файл
    Качество фильма: TVRip
    Тип видео: AVI
    Информация о видео: DivX 5, 512x384 (4: 3), 25.000 fps, 780 kbps, 0.159 bit/pixel
    Информация о звуке #1: русский, MP3 2.0, 48 kHz, 192 kbps
    Информация о звуке #2: немецкий, MP3 2.0, 44.1 kHz, 128 kbps
    MediaInfo
    Формат : AVI
    Формат/Информация : Audio Video Interleave
    Размер файла : 625 Мбайт
    Продолжительность : 1 ч. 18 м.
    Общий поток : 1115 Кбит/сек
    Программа кодирования : VirtualDubMod 1.5.10.2 (build 2540/release)
    Библиотека кодирования : VirtualDubMod build 2540/release
    Видео
    Идентификатор : 0
    Формат : MPEG-4 Visual
    Параметр BVOP формата : 1
    Параметр QPel формата : Нет
    Параметр GMC формата : Без точки перехода
    Параметр матрицы формата : Default (H.263)
    Режим смешивания : Сжатый битовый поток
    Идентификатор кодека : DX50
    Идентификатор кодека/Подсказка : DivX 5
    Продолжительность : 1 ч. 18 м.
    Битрейт : 780 Кбит/сек
    Ширина : 512 пикселей
    Высота : 384 пикселя
    Соотношение сторон : 4: 3
    Частота кадров : 25, 000 кадров/сек
    Цветовое пространство : YUV
    Субдискретизация насыщенности : 4: 2: 0
    Битовая глубина : 8 бит
    Тип развёртки : Прогрессивная
    Метод сжатия : С потерями
    Бит/(Пиксели*Кадры) : 0.159
    Размер потока : 438 Мбайт (70%)
    Библиотека кодирования : DivX 6.0.0 (UTC 2005-06-15)
    Аудио #1
    Идентификатор : 1
    Формат : MPEG Audio
    Версия формата : Version 1
    Профиль формата : Layer 3
    Режим : Joint stereo
    Расширение режима : MS Stereo
    Идентификатор кодека : 55
    Идентификатор кодека/Подсказка : MP3
    Продолжительность : 1 ч. 18 м.
    Вид битрейта : Постоянный
    Битрейт : 192 Кбит/сек
    Каналы : 2 канала
    Частота : 48, 0 КГц
    Метод сжатия : С потерями
    Размер потока : 108 Мбайт (17%)
    Выравнивание : Соединение по промежуткам
    Продолжительность промежутка : 40 мс. (1, 00 видеокадр)
    Время предзагрузки промежутка : 504 мс.
    Аудио #2
    Идентификатор : 2
    Формат : MPEG Audio
    Версия формата : Version 1
    Профиль формата : Layer 3
    Режим : Joint stereo
    Расширение режима : MS Stereo
    Идентификатор кодека : 55
    Идентификатор кодека/Подсказка : MP3
    Продолжительность : 1 ч. 18 м.
    Вид битрейта : Постоянный
    Битрейт : 128 Кбит/сек
    Каналы : 2 канала
    Частота : 44, 1 КГц
    Метод сжатия : С потерями
    Задержка видео : 20 мс.
    Размер потока : 71, 8 Мбайт (11%)
    Выравнивание : Разделение по промежуткам
    Продолжительность промежутка : 40 мс. (1, 00 видеокадр)
    Время предзагрузки промежутка : 500 мс.
    Скриншоты

    Залил: makkaronni

    Онлайн видео Присмотри за Сюзи


    Размер скачиваемого торрента: 625.11 MB (655470592 Bytes)

    Присмотри за Сюзи/Gib acht auf Susi! (1968) TVRip | A
    загрузка...
    Рейтинг →
     (голосов: 1, оценка 3/5, голосовать можно 1 раз )

    Другие торренты по теме:



      Комментарии (0):

      Информация

      Информация

        Посетители, находящиеся в группе Гости, не могут оставлять комментарии в данной новости.

        ↓ Меню



        ↓ Опрос

        А Вы добавили сайт в закладки?
        Да
        Не


        Top 10 за месяц (Фильмы)