.
Авторизация | Регистрация
» » Последний шанс Харви / Last Chance Harvey (2008) BDRip | А скачать торрент бесплатно




    Последний шанс Харви / Last Chance Harvey (2008) BDRip | А скачать торрент бесплатно

    Опубликовал: Админ | Дата: 1-08-2016, 05:01 | Просмотров: 52



    Последний шанс Харви / Last Chance Harvey
    Снималось в: США
    Создали в: Overture Films, Process Media
    Создали в: 2008
    Категория жанра: драма, мелодрама
    Время просмотра: 01: 32: 39
    Главный режиссер: Джоэл Хопкинс
    Автор сценария: Джоэл Хопкинс

    Актеры
    Дастин Хоффман, Эмма Томпсон, Айлин Эткинс, Кэти Бейкер, Лиэн Балабан, Джеймс Бролин, Ричард Шифф, Дэниэл Лапэйн, Брона Галлахер
    Описание: Харви одинок и уже немолод. Он живёт в Нью-Йорке, зарабатывая на жизнь сочинением рекламных джинглов. Но однажды его размеренной и скучной жизни приходит конец. Прилетев в Лондон на свадьбу своей дочери, Харви неожиданно узнаёт, что на торжественной церемонии в качестве отца невесты выступит не он, а ее отчим. Расстроенный и обиженный Харви опаздывает на свой самолёт в Нью-Йорк. В баре аэропорта он встречает обаятельную женщину по имени Кейт, с которой его связывает очень многое — несмотря на то, что они даже не знакомы. Это последний шанс Харви…

    Перевод текста: Авторский (одноголосый, закадровый) | Юрий Сербин
    Субтитры: нет
    Качество фильма: BDRip
    Тип видео: AVI
    Информация о видео кодек: XviD
    Информация о звуке кодек: АС3
    Информация о видео: 720x304 (2.35: 1), 23.976 fps, XviD build 64 ~1 786 kbps avg
    Информация о звуке: 48.0 kHz, AC3 Dolby Digital, 3/2 (L, C, R, l, r) + LFE ch, ~448 kbps
    Дата премьеры (мир): 8 ноября 2008
    релиз на DVD: 17 декабря 2009, Союз-Видео
    релиз на Blu-Ray: 22 декабря 2009, Союз-Видео
    Media Info

    Полное имя : Последний шанс Харви.avi
    Формат : AVI
    Формат/Информация : Audio Video Interleave
    Размер файла : 1, 45 Гбайт
    Продолжительность : 1 ч. 32 м.
    Общий поток : 2243 Кбит/сек
    Программа кодирования : VirtualDubMod 1.5.10.3 | (build 2550/release)
    Видео
    Идентификатор : 0
    Формат : MPEG-4 Visual
    Профиль формата : Advanced Simple@L5
    Параметр BVOP формата : 1
    Параметр QPel формата : Нет
    Параметр GMC формата : Без точки перехода
    Параметр матрицы формата : Выборочная
    Идентификатор кодека : XVID
    Идентификатор кодека/Подсказка : XviD
    Продолжительность : 1 ч. 32 м.
    Битрейт : 1786 Кбит/сек
    Ширина : 720 пикселей
    Высота : 304 пикселя
    Соотношение сторон : 2, 35: 1
    Частота кадров : 23, 976 кадра/сек
    Цветовое пространство : YUV
    Субдискретизация насыщенности : 4: 2: 0
    Битовая глубина : 8 бит
    Тип развёртки : Прогрессивная
    Метод сжатия : С потерями
    Бит/(Пиксели*Кадры) : 0.340
    Размер потока : 1, 16 Гбайт (80%)
    Библиотека кодирования : XviD 64
    Аудио
    Идентификатор : 1
    Формат : AC-3
    Формат/Информация : Audio Coding 3
    Расширение режима : CM (complete main)
    Параметр Endianness формата : Big
    Идентификатор кодека : 2000
    Продолжительность : 1 ч. 32 м.
    Вид битрейта : Постоянный
    Битрейт : 448 Кбит/сек
    Каналы : 6 каналов
    Расположение каналов : Front: L C R, Side: L R, LFE
    Частота : 48, 0 КГц
    Метод сжатия : С потерями
    Размер потока : 297 Мбайт (20%)
    Выравнивание : Разделение по промежуткам
    Продолжительность промежутка : 42 мс. (1, 00 видеокадр)
    Время предзагрузки промежутка : 500 мс.

    Скриншоты

    Залил: Zha-4k-e

    Онлайн видео Последний шанс Харви


    Размер скачиваемого торрента: 1.45 GB (1559072768 Bytes)

    Последний шанс Харви/Last Chance Harvey (2008) BDRip | А
    загрузка...
    Рейтинг →
     (голосов: 1, оценка 5/5, голосовать можно 1 раз )

    Другие торренты по теме:

  • Джон Гришэм - Последний шанс (2007) (2011) MP3 торрент скачать бесплатно
  • Чистосердечное признание. Последний шанс (2013) SATRip торрент скачать бесплатно
  • Последний шанс Харви / Last Chance Harvey (2008) BDRip-AVC от Rulya74 скачать через торрент бесплатно
  • Последний шанс Харви / Last Chance Harvey (2008) BDRip by msltel | P, P2, A скачать через торрент бесплатно
  • Последний шанс Харви / Last Chance Harvey (2008) BDRip 720p by msltel | P, P2, A торрент скачать бесплатно
  • Последний шанс Харви / Last Chance Harvey (2008) BDRip 1080p by msltel | P, P2, A скачать через торрент бесплатно
  • Последний шанс скачать через торрент бесплатно
  • Последний шанс Харви / Last Chance Harvey (2008) BDRip 1080p | Р, Р2 скачать торрент бесплатно


    • Комментарии (0):

      Информация

      Информация

        Посетители, находящиеся в группе Гости, не могут оставлять комментарии в данной новости.

        ↓ Меню



        ↓ Опрос

        А Вы добавили сайт в закладки?
        Да
        Не


        Top 10 за неделю (Фильмы)