.
Авторизация | Регистрация
» » Белоснежка и Охотник 2 / The Huntsman Winters War (2016) HDRip-AVC | iTunes | Расширенная версия скачать торрент бесплатно




    Белоснежка и Охотник 2 / The Huntsman Winters War (2016) HDRip-AVC | iTunes | Расширенная версия скачать торрент бесплатно

    Опубликовал: Админ | Дата: 1-08-2016, 05:02 | Просмотров: 65



    Детально о кино
    Русское название: Белоснежка и Охотник 2
    Русское название в мировом прокате: The Huntsman Winter;s War
    Создали в: 2016
    Категория жанра: Фэнтези, боевик, драма, приключения
    Главный режиссер: Седрик Николя-Троян

    Актеры
    Крис Хемсворт, Шарлиз Терон, Джессика Честейн, Эмили Блант, Ник Фрост, Роб Брайдон, Шеридан Смит, Александра Роуч, Сопе Дирису, Сэм Хэзелдайн, Сэм Клафлин, Софи Куксон, Конрад Кхан, Ниам Уолтер, Нана Аджйеман-Бедьяко, Амелия Крауч, Фред Татаскьор, Ралф Айнесон, Линн Уилмот, Колин Морган

    Сюжет фильма
    Когда любовь уходит, сердце прекрасной девы обращается в лед. И даже сотни королевств не смогут сдержать поступь ее несметного воинства. Лишь Охотник не ведает страха. Сквозь проклятый лес он идет навстречу своей судьбе.

    Снималось в: США/Roth Films, Universal Pictures
    Время просмотра: 02: 00: 10
    Перевод текста: Дублированный iTunes
    Примечание: Внимание! Расширенные сцены (7 мин. по всему фильму) на английском языке.
    Файл
    Качество фильма: HDRip-AVC
    Тип видео: MKV
    Информация о видео: AVC, 2500 Kbps, 1024 x 424
    Информация о звуке: Русский: AC3, 6 ch, 384 kbps, Английский: AC3, 6 ch, 448 kbps
    Субтитры: Английский
    Дополнительно: Сохранены оригинальные главы (чаптеры)


    MediaInfo:
    Format : Matroska
    Format version : Version 4/Version 2
    File size : 2.80 GiB
    Duration : 2h 0mn
    Overall bit rate : 3 334 Kbps
    Movie name : Rip by basma4i
    Encoded date : UTC 2016-07-29 13: 56: 51
    Writing application : mkvmerge v8.2.0 (;World of Adventure;) 64bit
    Writing library : Lavf57.25.100
    Attachements : cover.jpg
    ENCODING_INFO : MATROSKA, WEBM MKV/H264 X264 VBR-2P 2500kbps Произвольный/AC3 AC3 CBR 384kbps/DTS AC3 CBR 448kbps
    Video
    ID : 1
    Format : AVC
    Format/Info : Advanced Video Codec
    Format profile : Main@L4.1
    Format settings, CABAC : Yes
    Format settings, ReFrames : 14 frames
    Codec ID : V_MPEG4/ISO/AVC
    Bit rate : 2 500 Kbps
    Width : 1 024 pixels
    Height : 424 pixels
    Display aspect ratio : 2.40: 1
    Original display aspect ratio : 2.40: 1
    Frame rate mode : Variable
    Original frame rate : 23.976 fps
    Color space : YUV
    Chroma subsampling : 4: 2: 0
    Bit depth : 8 bits
    Scan type : Progressive
    Bits/(Pixel*Frame) : 0.240
    Writing library : x264 core 148 r2705M 3f5ed56
    Encoding settings : cabac=1/ref=14/deblock=1: -3: -3/analyse=0x1: 0x131/me=umh/subme=11/psy=1/psy_rd=1.00: 0.20/mixed_ref=1/me_range=32/chroma_me=1/trellis=2/8x8dct=0/cqm=0/deadzone=21, 11/fast_pskip=1/chroma_qp_offset=-4/threads=12/lookahead_threads=3/sliced_threads=0/nr=0/decimate=1/interlaced=0/bluray_compat=0/constrained_intra=0/bframes=11/b_pyramid=2/b_adapt=2/b_bias=10/direct=3/weightb=1/open_gop=0/weightp=2/keyint=230/keyint_min=23/scenecut=40/intra_refresh=0/rc_lookahead=40/rc=2pass/mbtree=1/bitrate=2500/ratetol=1.0/qcomp=0.60/qpmin=0/qpmax=69/qpstep=10/cplxblur=20.0/qblur=0.5/ip_ratio=1.40/aq=1: 1.00
    Language : English
    Default : Yes
    Forced : No
    Color range : Limited
    Color primaries : BT.709
    Matrix coefficients : BT.709
    ENCODING_INFO : x264 - core 148 r2638 7599210 - H.264/MPEG-4 AVC codec - Copyleft 2003-2015 - http://www.videolan.org/x264.html - options: cabac=1 ref=5 deblock=1: -3: -3 analyse=0x3: 0x133 me=umh subme=10 psy=1 psy_rd=1.00: 0.15 mixed_ref=1 me_range=24 chroma_me=1 trellis=2 8x8dct=1 cqm=0 deadzone=21, 11 fast_pskip=1 chroma_qp_offset=-3 threads=12 lookahead_threads=2 sliced_threads=0 nr=0 decimate=1 interlaced=0 bluray_compat=0 constrained_intra=0 bframes=8 b_pyramid=2 b_adapt=2 b_bias=0 direct=3 weightb=1 open_gop=0 weightp=2 keyint=240 keyint_min=23 scenecut=40 intra_refresh=0 rc_lookahead=60 rc=crf mbtree=1 crf=17.0 qcomp=0.60 qpmin=0 qpmax=51 qpstep=4 vbv_maxrate=50000 vbv_bufsize=62500 crf_max=0.0 nal_hrd=none filler=0 ip_ratio=1.30 aq=3: 1.00
    DURATION : 02: 00: 10.250000000
    NUMBER_OF_FRAMES : 172873
    NUMBER_OF_BYTES : 2252554353
    _STATISTICS_WRITING_APP : mkvmerge v8.2.0 (;World of Adventure;) 64bit
    _STATISTICS_WRITING_DATE_UTC : 2016-07-29 13: 56: 51
    _STATISTICS_TAGS : BPS DURATION NUMBER_OF_FRAMES NUMBER_OF_BYTES
    Audio #1
    ID : 2
    Format : AC-3
    Format/Info : Audio Coding 3
    Mode extension : CM (complete main)
    Format settings, Endianness : Big
    Codec ID : A_AC3
    Duration : 2h 0mn
    Bit rate mode : Constant
    Bit rate : 384 Kbps
    Channel(s) : 6 channels
    Channel positions : Front: L C R, Side: L R, LFE
    Sampling rate : 48.0 KHz
    Compression mode : Lossy
    Stream size : 330 MiB (12%)
    Title : DUB iTunes
    Language : Russian
    Default : Yes
    Forced : No
    DURATION : 02: 00: 10.240000000
    NUMBER_OF_FRAMES : 225320
    NUMBER_OF_BYTES : 346091520
    _STATISTICS_WRITING_APP : mkvmerge v8.2.0 (;World of Adventure;) 64bit
    _STATISTICS_WRITING_DATE_UTC : 2016-07-29 13: 56: 51
    _STATISTICS_TAGS : BPS DURATION NUMBER_OF_FRAMES NUMBER_OF_BYTES
    Audio #2
    ID : 3
    Format : AC-3
    Format/Info : Audio Coding 3
    Mode extension : CM (complete main)
    Format settings, Endianness : Big
    Codec ID : A_AC3
    Duration : 2h 0mn
    Bit rate mode : Constant
    Bit rate : 448 Kbps
    Channel(s) : 6 channels
    Channel positions : Front: L C R, Side: L R, LFE
    Sampling rate : 48.0 KHz
    Compression mode : Lossy
    Stream size : 385 MiB (13%)
    Language : English
    Default : No
    Forced : No
    DURATION : 02: 00: 10.304000000
    NUMBER_OF_FRAMES : 225322
    NUMBER_OF_BYTES : 403777024
    _STATISTICS_WRITING_APP : mkvmerge v8.2.0 (;World of Adventure;) 64bit
    _STATISTICS_WRITING_DATE_UTC : 2016-07-29 13: 56: 51
    _STATISTICS_TAGS : BPS DURATION NUMBER_OF_FRAMES NUMBER_OF_BYTES
    Text #1
    ID : 4
    Format : UTF-8
    Codec ID : S_TEXT/UTF8
    Codec ID/Info : UTF-8 Plain Text
    Language : English
    Default : Yes
    Forced : No
    DURATION : 01: 49: 40.022000000
    NUMBER_OF_FRAMES : 1137
    NUMBER_OF_BYTES : 29814
    _STATISTICS_WRITING_APP : mkvmerge v8.2.0 (;World of Adventure;) 64bit
    _STATISTICS_WRITING_DATE_UTC : 2016-07-29 13: 56: 51
    _STATISTICS_TAGS : BPS DURATION NUMBER_OF_FRAMES NUMBER_OF_BYTES
    Text #2
    ID : 5
    Format : UTF-8
    Codec ID : S_TEXT/UTF8
    Codec ID/Info : UTF-8 Plain Text
    Title : SDH
    Language : English
    Default : No
    Forced : No
    DURATION : 01: 49: 42.191000000
    NUMBER_OF_FRAMES : 1323
    NUMBER_OF_BYTES : 33216
    _STATISTICS_WRITING_APP : mkvmerge v8.2.0 (;World of Adventure;) 64bit
    _STATISTICS_WRITING_DATE_UTC : 2016-07-29 13: 56: 51
    _STATISTICS_TAGS : BPS DURATION NUMBER_OF_FRAMES NUMBER_OF_BYTES
    Menu
    00: 00: 00.000 : : 00: 00: 00.000
    00: 05: 09.476 : : 00: 05: 09.476
    00: 12: 09.687 : : 00: 12: 09.687
    00: 17: 35.346 : : 00: 17: 35.346
    00: 24: 02.149 : : 00: 24: 02.149
    00: 32: 05.382 : : 00: 32: 05.382
    00: 35: 27.041 : : 00: 35: 27.041
    00: 43: 32.902 : : 00: 43: 32.902
    00: 49: 44.106 : : 00: 49: 44.106
    00: 53: 59.361 : : 00: 53: 59.361
    01: 00: 51.147 : : 01: 00: 51.147
    01: 08: 51.794 : : 01: 08: 51.794
    01: 11: 05.219 : : 01: 11: 05.219
    01: 16: 52.107 : : 01: 16: 52.107
    01: 24: 03.705 : : 01: 24: 03.705
    01: 31: 58.429 : : 01: 31: 58.429
    Скриншоты


    Онлайн видео Белоснежка и Охотник 2


    Размер скачиваемого торрента: 2.80 GB (3004485865 Bytes)

    Белоснежка и Охотник 2/The Huntsman Winters War (2016) HDRip-AVC | iTunes | Расширенная версия
    загрузка...
    Рейтинг →
     (голосов: 1, оценка 4/5, голосовать можно 1 раз )

    Другие торренты по теме:



      Комментарии (0):

      Информация

      Информация

        Посетители, находящиеся в группе Гости, не могут оставлять комментарии в данной новости.

        ↓ Меню



        ↓ Опрос

        А Вы добавили сайт в закладки?
        Да
        Не


        Top 10 за неделю (Фильмы)