.
Авторизация | Регистрация
» » Виселица / The Gallows (2015) DVD-9 от NovaLan | D скачать торрент бесплатно




    Виселица / The Gallows (2015) DVD-9 от NovaLan | D скачать торрент бесплатно

    Опубликовал: Админ | Дата: 1-08-2016, 05:02 | Просмотров: 88



    Детально о кино
    Русское название: Виселица
    Русское название в мировом прокате: The Gallows
    Создали в: 2015
    Категория жанра: Ужасы, триллер
    Главный режиссер: Трэвис Клафф, Крис Лофинг

    Актеры
    Риз Мишлер, Пфайфер Брау, Райан Шу, Кэссиди Гиффорд, Трэвис Клафф, Прайс Т. Морган, Тео Буркхардт, Дэвид Херрера, Гэннон Дель Фиерро, Маки Берт

    Сюжет фильма
    Спустя 20 лет после трагического несчастного случая при постановке школьной пьесы учащиеся решают вновь поставить ее с целью почтить память погибшего ученика. Но в некоторых случаях прошлое лучше не ворошить…

    Время просмотра: 01: 17: 30
    Перевод текста: Дублированный
    Файл
    Кодек для видео: MPEG-2
    Качество фильма: DVD-9
    Информация о видео: MPEG2, PAL 16: 9 (720x576@1024x576) VBR, 25, 000 кадров/сек
    Информация о звуке: Русский DD 2.0(192 Kbps), Английский, Испанский DD 5.1 (384 Kbps)
    Субтитры: Английские, немецкие, испанские
    Меню
    DVDInfo

    Title: Локальный диск
    Size: 5.30 Gb ( 5 555 594 KBytes ) - DVD-9
    Enabled regions: 1, 2, 3, 4, 5, 6, 7, 8
    VTS_01 :
    Play Length: 01: 17: 30+00: 09: 21+00: 16: 03+00: 00: 20+00: 00: 44+00: 00: 58+00: 00: 40+00: 00: 46+00: 02: 03+00: 03: 19+00: 01: 23+00: 03: 34+00: 01: 31+00: 07: 26
    Video: PAL 16: 9 (720x576) VBR, Auto PanScan
    Audio:
    English (Dolby AC3, 6 ch)
    Deutsch (Dolby AC3, 6 ch)
    Espanol (Dolby AC3, 6 ch)
    Russian (Dolby AC3, 2 ch)
    Subtitles:
    English
    Deutsch
    Espanol
    Deutsch
    Espanol
    VTS_02 :
    Play Length: 00: 00: 10
    Video: PAL 16: 9 (720x576) VBR, Auto PanScan
    Audio:
    Not specified (Dolby AC3, 6 ch)
    Subtitles:
    Not specified
    Menu Video:
    PAL 16: 9 (720x576) VBR
    Auto Letterboxed
    Menu Subtitles:
    Not specified
    Menu Language Unit :
    Root Menu
    MediaInfo

    Общее
    Полное имя : D: 1АААВиселицаVIDEO_TSVTS_01_1.VOB
    Формат : MPEG-PS
    Размер файла : 1024 Мбайт
    Продолжительность : 19 м.
    Режим общего битрейта : Переменный
    Общий поток : 7382 Кбит/сек
    Видео
    Идентификатор : 224 (0xE0)
    Формат : MPEG Video
    Версия формата : Version 2
    Профиль формата : Main@Main
    Параметр BVOP формата : Да
    Параметр матрицы формата : Выборочная
    Параметр GOP формата : Variable
    Продолжительность : 19 м.
    Вид битрейта : Переменный
    Битрейт : 5891 Кбит/сек
    Максимальный битрейт : 7500 Кбит/сек
    Ширина : 720 пикселей
    Высота : 576 пикселей
    Соотношение сторон : 16: 9
    Частота кадров : 25, 000 кадров/сек
    Стандарт вещания : PAL
    Цветовое пространство : YUV
    Субдискретизация насыщенности : 4: 2: 0
    Битовая глубина : 8 бит
    Тип развёртки : Чересстрочная
    Порядок развёртки : Верхнее поле первое
    Метод сжатия : С потерями
    Бит/(Пиксели*Кадры) : 0.568
    TimeCode_FirstFrame : 00: 59: 58: 00
    TimeCode_Source : Group of pictures t_head
    Размер потока : 817 Мбайт (80%)
    Аудио #1
    Идентификатор : 189 (0xBD)-128 (0x80)
    Формат : AC-3
    Формат/Информация : Audio Coding 3
    Расширение режима : CM (complete main)
    Параметр Endianness формата : Big
    Режим смешивания : DVD-Video
    Продолжительность : 19 м.
    Вид битрейта : Постоянный
    Битрейт : 384 Кбит/сек
    Каналы : 6 каналов
    Расположение каналов : Front: L C R, Side: L R, LFE
    Частота : 48, 0 КГц
    Битовая глубина : 16 бит
    Метод сжатия : С потерями
    Размер потока : 53, 3 Мбайт (5%)
    Аудио #2
    Идентификатор : 189 (0xBD)-129 (0x81)
    Формат : AC-3
    Формат/Информация : Audio Coding 3
    Расширение режима : CM (complete main)
    Параметр Endianness формата : Big
    Режим смешивания : DVD-Video
    Продолжительность : 19 м.
    Вид битрейта : Постоянный
    Битрейт : 384 Кбит/сек
    Каналы : 6 каналов
    Расположение каналов : Front: L C R, Side: L R, LFE
    Частота : 48, 0 КГц
    Битовая глубина : 16 бит
    Метод сжатия : С потерями
    Размер потока : 53, 3 Мбайт (5%)
    Аудио #3
    Идентификатор : 189 (0xBD)-130 (0x82)
    Формат : AC-3
    Формат/Информация : Audio Coding 3
    Расширение режима : CM (complete main)
    Параметр Endianness формата : Big
    Режим смешивания : DVD-Video
    Продолжительность : 19 м.
    Вид битрейта : Постоянный
    Битрейт : 384 Кбит/сек
    Каналы : 6 каналов
    Расположение каналов : Front: L C R, Side: L R, LFE
    Частота : 48, 0 КГц
    Битовая глубина : 16 бит
    Метод сжатия : С потерями
    Размер потока : 53, 3 Мбайт (5%)
    Аудио #4
    Идентификатор : 189 (0xBD)-131 (0x83)
    Формат : AC-3
    Формат/Информация : Audio Coding 3
    Расширение режима : CM (complete main)
    Параметр Endianness формата : Big
    Режим смешивания : DVD-Video
    Продолжительность : 19 м.
    Вид битрейта : Постоянный
    Битрейт : 192 Кбит/сек
    Каналы : 2 канала
    Расположение каналов : Front: L R
    Частота : 48, 0 КГц
    Битовая глубина : 16 бит
    Метод сжатия : С потерями
    Размер потока : 26, 6 Мбайт (3%)
    Текст #1
    Идентификатор : 189 (0xBD)-32 (0x20)
    Формат : RLE
    Формат/Информация : Run-length encoding
    Режим смешивания : DVD-Video
    Текст #2
    Идентификатор : 189 (0xBD)-33 (0x21)
    Формат : RLE
    Формат/Информация : Run-length encoding
    Режим смешивания : DVD-Video
    Текст #3
    Идентификатор : 189 (0xBD)-34 (0x22)
    Формат : RLE
    Формат/Информация : Run-length encoding
    Режим смешивания : DVD-Video
    Меню

    Скриншоты

    Релиз: 089233
    Залил: YArl

    Онлайн видео Виселица


    Размер скачиваемого торрента: 5.30 GB (5688928256 Bytes)

    Виселица/The Gallows (2015) DVD-9 от NovaLan | D
    загрузка...
    Рейтинг →
     (голосов: 1, оценка 4/5, голосовать можно 1 раз )

    Другие торренты по теме:



      Комментарии (0):

      Информация

      Информация

        Посетители, находящиеся в группе Гости, не могут оставлять комментарии в данной новости.

        ↓ Меню



        ↓ Опрос

        А Вы добавили сайт в закладки?
        Да
        Не


        Top 10 за неделю (Фильмы)