.
Авторизация | Регистрация
Хочешь лучшие торренты? Добавь свой email!
Добавить
» » Мятная конфета / Bakha satang (1999) BDRemux 1080p | L1 торрент скачать бесплатно




    Мятная конфета / Bakha satang (1999) BDRemux 1080p | L1 торрент скачать бесплатно

    Опубликовал: Админ | Дата: 3-08-2016, 05:00 | Просмотров: 48



    Мятная конфета / Peppermint Candy / Bakha satang
    Снималось в: Южная КореяЯпония
    Создали в: East Film Company
    Создали в: 1999
    Категория жанра: драма
    Время просмотра: 02: 10: 17
    Главный режиссер: Ли Чхан-дон
    Автор сценария: Ли Чхан-дон

    Актеры
    Ким Ё-джин, Соль Гён-гу, Со Джон, Мун Со-ри, Ким Ин-гвон, Ко Со-хи, Ли Дэ-ён, Пак Сэ-бом, Ю Ен Су, Чон Мин-сон
    Описание: История несчастного человека, обеспокоенного будущим и отягощенного печальным опытом прошлого...

    Перевод текста: Любительский (одноголосый) | D.I.M+ Любительский (одноголосый) | viare
    Субтитры: русские, английские
    Качество фильма: BDRemux 1080p
    Тип видео: MKV
    Информация о видео кодек: AVC
    Информация о звуке кодек: AС3 | DTS
    Информация о видео: 1920x1080 (16: 9), 23.976 fps, MPEG-4 AVC ~17.0 Mbps
    Информация о звуке №1: 48.0 kHz, AC3 Dolby Digital, 2/0 (L, R) ch, ~256 kbps | RUS/ D.I.M
    Информация о звуке №2: 48.0 kHz, AC3 Dolby Digital, 2/0 (L, R) ch, ~224 kbps | RUS/ viare
    Информация о звуке №3: 48.0 kHz, Digital Theater Systems МА, 2/0 (L, R) ch, ~1981 kbps avg | KOR
    Тип видео субтитров: UTF-8 Plain Text
    Дата премьеры (мир): 14 октября 1999

    Релиз подготовил:
    Media Info
    General
    Уникальный идентификатор : 253004813417181451515529503867258865213 (0xBE56F4623368A0C986A6D3152A35063D)
    Полное имя : Peppermint.Candy.1999.BDRemux.1080p_by_vedigo.mkv
    Формат : Matroska
    Версия формата : Version 4/Version 2
    Размер файла : 17, 7 Гбайт
    Продолжительность : 2 ч. 10 м.
    Режим общего битрейта : Переменный
    Общий поток : 19, 5 Мбит/сек
    Название фильма : Peppermint.Candy.1999.BDRemux.1080p_by_vedigo
    Дата кодирования : UTC 2016-08-02 06: 41: 01
    Программа кодирования : mkvmerge v9.3.1 (;Mask Machine;) 64bit
    Библиотека кодирования : libebml v1.3.4 + libmatroska v1.4.5
    Видео
    Идентификатор : 1
    Формат : AVC
    Формат/Информация : Advanced Video Codec
    Профиль формата : High@L4.1
    Параметр CABAC формата : Да
    Параметр ReFrames формата : 4 кадра
    Параметр GOP формата : M=3, N=24
    Идентификатор кодека : V_MPEG4/ISO/AVC
    Продолжительность : 2 ч. 10 м.
    Вид битрейта : Переменный
    Битрейт : 17, 0 Мбит/сек
    Максимальный битрейт : 35, 0 Мбит/сек
    Ширина : 1920 пикселей
    Высота : 1080 пикселей
    Соотношение сторон : 16: 9
    Режим частоты кадров : Постоянный
    Частота кадров : 23, 976 (24000/1001) кадра/сек
    Стандарт вещания : NTSC
    Цветовое пространство : YUV
    Субдискретизация насыщенности : 4: 2: 0
    Битовая глубина : 8 бит
    Тип развёртки : Прогрессивная
    Бит/(Пиксели*Кадры) : 0.342
    Размер потока : 15, 5 Гбайт (87%)
    Заголовок : Peppermint.Candy.1999.BDRemux.1080p_by_vedigo
    Default : Да
    Forced : Нет
    Цветовой диапазон : Limited
    Основные цвета : BT.709
    Характеристики трансфера : BT.709
    Коэффициенты матрицы : BT.709
    Аудио #1
    Идентификатор : 2
    Формат : AC-3
    Формат/Информация : Audio Coding 3
    Расширение режима : CM (complete main)
    Параметр Endianness формата : Big
    Идентификатор кодека : A_AC3
    Продолжительность : 2 ч. 10 м.
    Вид битрейта : Постоянный
    Битрейт : 256 Кбит/сек
    Каналы : 2 канала
    Расположение каналов : Front: L R
    Частота : 48, 0 КГц
    Частота кадров : 31, 250 кадров/сек (1536 spf)
    Метод сжатия : С потерями
    Размер потока : 238 Мбайт (1%)
    Заголовок : VO @ D.I.M
    Язык : Russian
    Default : Да
    Forced : Нет
    Аудио #2
    Идентификатор : 3
    Формат : AC-3
    Формат/Информация : Audio Coding 3
    Расширение режима : CM (complete main)
    Параметр Endianness формата : Big
    Идентификатор кодека : A_AC3
    Продолжительность : 2 ч. 10 м.
    Вид битрейта : Постоянный
    Битрейт : 224 Кбит/сек
    Каналы : 2 канала
    Расположение каналов : Front: L R
    Частота : 48, 0 КГц
    Частота кадров : 31, 250 кадров/сек (1536 spf)
    Метод сжатия : С потерями
    Размер потока : 209 Мбайт (1%)
    Заголовок : VO @ viare
    Язык : Russian
    Default : Нет
    Forced : Нет
    Аудио #3
    Идентификатор : 4
    Формат : DTS
    Формат/Информация : Digital Theater Systems
    Профиль формата : MA/Core
    Режим : 16
    Параметр Endianness формата : Big
    Идентификатор кодека : A_DTS
    Продолжительность : 2 ч. 10 м.
    Вид битрейта : Переменный/Постоянный
    Битрейт : 1981 Кбит/сек/1509 Кбит/сек
    Каналы : 2 канала
    Расположение каналов : Front: L R
    Частота : 48, 0 КГц
    Частота кадров : 93, 750 кадра/сек (512 spf)
    Битовая глубина : 24 бит
    Метод сжатия : Без потерь/Lossy
    Размер потока : 1, 80 Гбайт (10%)
    Заголовок : Original
    Язык : Korean
    Default : Нет
    Forced : Нет
    Текст #1
    Идентификатор : 5
    Формат : UTF-8
    Идентификатор кодека : S_TEXT/UTF8
    Идентификатор кодека/Информация : UTF-8 Plain Text
    Продолжительность : 2 ч. 5 м.
    Битрейт : 49 бит/сек
    Count of elements : 922
    Размер потока : 45, 1 Кбайт (0%)
    Заголовок : Subtitle rus
    Язык : Russian
    Default : Нет
    Forced : Нет
    Текст #2
    Идентификатор : 6
    Формат : UTF-8
    Идентификатор кодека : S_TEXT/UTF8
    Идентификатор кодека/Информация : UTF-8 Plain Text
    Продолжительность : 2 ч. 5 м.
    Битрейт : 28 бит/сек
    Count of elements : 924
    Размер потока : 26, 0 Кбайт (0%)
    Заголовок : Subtitle eng
    Язык : English
    Default : Нет
    Forced : Нет
    Меню
    00: 00: 00.000 : en: 00: 00: 00.000
    00: 12: 13.024 : en: 00: 12: 13.024
    00: 21: 35.753 : en: 00: 21: 35.753
    00: 30: 51.641 : en: 00: 30: 51.641
    00: 38: 47.158 : en: 00: 38: 47.158
    00: 47: 04.238 : en: 00: 47: 04.238
    00: 56: 23.130 : en: 00: 56: 23.130
    01: 05: 13.993 : en: 01: 05: 13.993
    01: 13: 05.506 : en: 01: 13: 05.506
    01: 24: 01.036 : en: 01: 24: 01.036
    01: 30: 51.696 : en: 01: 30: 51.696
    01: 35: 58.002 : en: 01: 35: 58.002
    01: 43: 14.438 : en: 01: 43: 14.438
    01: 49: 55.756 : en: 01: 49: 55.756
    01: 59: 48.181 : en: 01: 59: 48.181

    Скриншоты

    Залил: Zha-4k-e

    Онлайн видео Мятная конфета


    Размер скачиваемого торрента: 17.71 GB (19017373005 Bytes)

    Мятная конфета/Bakha satang (1999) BDRemux 1080p | L1
    загрузка...
    Рейтинг →
     (голосов: 1, оценка 3/5, голосовать можно 1 раз )

    Другие торренты по теме:

  • Мятная конфета / Bakha satang (1999) BDRip от Koenig | L1


    • Комментарии (0):

      Информация

      Информация

        Посетители, находящиеся в группе Гости, не могут оставлять комментарии в данной новости.

        ↓ Меню



        ↓ Опрос

        А Вы добавили сайт в закладки?
        Да
        Не


        Top 10 за месяц (Фильмы)