.
Авторизация | Регистрация
» » Вымирание / Extinction (2015) HDRip от Portablius | iTunes скачать торрент бесплатно




    Вымирание / Extinction (2015) HDRip от Portablius | iTunes скачать торрент бесплатно

    Опубликовал: Админ | Дата: 4-08-2016, 05:00 | Просмотров: 61



    Детально о кино
    Русское название: Вымирание
    Русское название в мировом прокате: Extinction
    Создали в: 2015
    Категория жанра: ужасы, фантастика, драма
    Главный режиссер: Мигель Анхель Вивас

    Актеры
    Мэттью Фокс (Patrick), Джеффри Донован (Jack), Куинн Маккоулган (Lu), Валерия Веро (Emma), Клара Лаго (Woman), Eduardo Fedriani (Creature 1), Мэтт Девере (Soldier 1), Алекс Хафнер (Soldier 2), Джереми Вилер (Bus Driver), Katharine Bubbear (Young Girl), Daniel Bargue?o (Creature 2), Орсоля Бене (Woman on Bus 2)

    Сюжет фильма
    После нескольких сотен тысяч лет эволюции и превосходства, люди были почти стерты с лица Земли. В течение всего лишь нескольких дней инфекция превратила их в диких существ без интеллекта, они стали злыми и безжалостными. Через семь лет после этого, мы находим небольшой городок - Harmony, покрытый многолетними снегами. Двое мужчин, давние друзья Патрик и Джек, и дочь Джека, Лу, - единственные оставшиеся в живых. Тем не менее, они не общаются или даже не признают друг друга. Что-то ужасное произошло между ними и глубокая неумолимая ненависть прекратила их дружбу давным-давно.

    Снималось в: Испания, США, Венгрия, Франция
    Киностудия: Vaca Films, Ombra Films....
    Время просмотра: 01: 52: 59
    Перевод текста: Профессиональный (многоголосый) iTunes
    Субтитры: Нет
    Семпл
    Файл
    Кодек для видео: XviD
    Качество фильма: HDRip
    Информация о видео: 720x304 (2.37: 1), 24 fps, XviD build 73 ~785 kbps avg, 0.15 bit/pixel
    Информация о звуке: 48 kHz, MPEG Layer 3, 2 ch, ~128.00 kbps avg
    MediaInfo
    Общее
    Полное имя : E: ЗагрузкиExtinction.2015.HDRip.Portablius.avi
    Формат : AVI
    Формат/Информация : Audio Video Interleave
    Размер файла : 746 Мбайт
    Продолжительность : 1 ч. 52 м.
    Общий поток : 923 Кбит/сек
    Программа кодирования : VirtualDubMod 1.5.10.3 | www.virtualdub-fr.org || (build 2550/release)
    Библиотека кодирования : VirtualDubMod build 2550/release
    Видео
    Идентификатор : 0
    Формат : MPEG-4 Visual
    Профиль формата : Advanced Simple@L5
    Параметр BVOP формата : 1
    Параметр QPel формата : Нет
    Параметр GMC формата : Без точки перехода
    Параметр матрицы формата : Выборочная
    Идентификатор кодека : XVID
    Идентификатор кодека/Подсказка : XviD
    Продолжительность : 1 ч. 52 м.
    Битрейт : 786 Кбит/сек
    Ширина : 720 пикселей
    Высота : 304 пикселя
    Соотношение сторон : 2, 35: 1
    Частота кадров : 24, 000 кадра/сек
    Цветовое пространство : YUV
    Субдискретизация насыщенности : 4: 2: 0
    Битовая глубина : 8 бит
    Тип развёртки : Прогрессивная
    Метод сжатия : С потерями
    Бит/(Пиксели*Кадры) : 0.150
    Размер потока : 635 Мбайт (85%)
    Библиотека кодирования : XviD 73
    Аудио
    Идентификатор : 1
    Формат : MPEG Audio
    Версия формата : Version 1
    Профиль формата : Layer 3
    Идентификатор кодека : 55
    Идентификатор кодека/Подсказка : MP3
    Продолжительность : 1 ч. 52 м.
    Вид битрейта : Постоянный
    Битрейт : 128 Кбит/сек
    Каналы : 2 канала
    Частота : 48, 0 КГц
    Метод сжатия : С потерями
    Размер потока : 103 Мбайт (14%)
    Выравнивание : Соединение по промежуткам
    Продолжительность промежутка : 42 мс. (1, 00 видеокадр)
    Время предзагрузки промежутка : 504 мс.
    Библиотека кодирования : LAME3.99r
    Залил: Evgen Portable

    Онлайн видео Вымирание


    Размер скачиваемого торрента: 745.61 MB (781826048 Bytes)


    Вымирание/Extinction (2015) HDRip от Portablius | iTunes
    загрузка...
    Рейтинг →
     (голосов: 1, оценка 4/5, голосовать можно 1 раз )

    Другие торренты по теме:

  • Вымирание / Extinction (2014) BDRip | L2 скачать торрент бесплатно
  • Вымирание / Extinction (2015) WEB-DLRip | iTunes скачать торрент бесплатно
  • Вымирание / Extinction (2015) WEB-DLRip-AVC | iTunes скачать торрент бесплатно
  • Вымирание / Extinction (2015) BDRip-AVC от HELLYWOOD | iTunes скачать торрент бесплатно
  • Вымирание / Extinction (2015) HDRip от KinoHitHD | КПК | iTunes скачать торрент бесплатно
  • Обитель зла 3: Вымирание / Resident Evil: Extinction (2007) BDRip 720p от Leonardo and Scarabey торрент скачать бесплатно
  • Обитель зла 3: Вымирание / Resident Evil: Extinction (2007) BDRip-AVC | iPhone | D торрент скачать бесплатно
  • Обитель зла 3: Вымирание / Resident Evil: Extinction (2007) BDRip-AVC от Leo.pard | D скачать через торрент бесплатно


    • Комментарии (0):

      Информация

      Информация

        Посетители, находящиеся в группе Гости, не могут оставлять комментарии в данной новости.

        ↓ Меню



        ↓ Опрос

        А Вы добавили сайт в закладки?
        Да
        Не


        Top 10 за неделю (Фильмы)