.
Авторизация | Регистрация
Хочешь лучшие торренты? Добавь свой email!
Добавить
» » На линии огня / Ligne de mire (2014) HDTV 1080i от MediaClub | P торрент скачать бесплатно




    На линии огня / Ligne de mire (2014) HDTV 1080i от MediaClub | P торрент скачать бесплатно

    Опубликовал: Админ | Дата: 6-08-2016, 05:00 | Просмотров: 86



    Детально о кино
    Русское название: На линии огня
    Русское название в мировом прокате: Ligne de mire
    Создали в: 2014
    Категория жанра: Триллер, драма
    Главный режиссер: Николя Эрдт

    Актеры
    Лола Деваэр, Тьерри Нёвик, Федор Аткин, Смади Вольфман, Даниэль Кенигсберг, Мари Петьё, Лиан Фоли, Дэвид Алексис, Шанталь Бароен, Жан-Поль Баззикони, Себастьен Бии, Антуан Бланкфорт, Пако Бублар, Жозеф Шане, Элизабет Коммелен

    Сюжет фильма

    Семья Дэвида и Клер в сложном положении — после разорения подрядчика они могут лишиться дома, в который вложили все свои средства. Последняя надежда — это собеседование на новое место работы для Дэвида, на которое он отправляется в Париж. Но на вокзале он садится в такси, которое было предназначено не для него…

    Снималось в: Франция
    Киностудия: Adrenaline Productions, France T?l?visions, Radio T?l?vision Suisse (RTS), TV5 Monde
    Время просмотра: 01: 28: 14
    Перевод текста: Профессиональный многоголосый
    Файл
    Кодек для видео: h.264
    Качество фильма: HDTV 1080i
    Информация о видео: MPEG-4 AVC, ~ 9296 Кбит/с, 1920x1080, 25.000 кадр/с
    Информация о звуке:
    Русский (AC3, 6 ch, 448 Кбит/с)/Профессиональный многоголосый
    Русский (MP2, 2 ch, 192 Кбит/с)/Профессиональный многоголосый
    Семпл
    О релизе
    Автор релиза - Silverok, первоисточник - Кинопоказ HD2

    MI
    Общее
    Идентификатор : 1 (0x1)
    Полное имя : D: uTorrentNa.linii.ognja.2014.HDTV.1080i.MediaClub.ts
    Формат : MPEG-TS
    Размер файла : 6, 45 Гбайт
    Продолжительность : 1 ч. 28 м.
    Режим общего битрейта : Переменный
    Общий поток : 10, 5 Мбит/сек
    Видео
    Идентификатор : 3031 (0xBD7)
    Идентификатор меню : 1234 (0x4D2)
    Формат : AVC
    Формат/Информация : Advanced Video Codec
    Профиль формата : Main@L4
    Параметр CABAC формата : Да
    Параметр ReFrames формата : 4 кадра
    Параметр GOP формата : M=1, N=32
    Идентификатор кодека : 27
    Продолжительность : 1 ч. 28 м.
    Битрейт : 9296 Кбит/сек
    Ширина : 1920 пикселей
    Высота : 1080 пикселей
    Соотношение сторон : 16: 9
    Частота кадров : 25, 000 кадров/сек
    Цветовое пространство : YUV
    Субдискретизация насыщенности : 4: 2: 0
    Битовая глубина : 8 бит
    Тип развёртки : Чересстрочная
    Метод сохранения типа развёртки : Раздельные поля
    Порядок развёртки : Верхнее поле первое
    Бит/(Пиксели*Кадры) : 0.179
    Размер потока : 5, 73 Гбайт (89%)
    Цветовой диапазон : Limited
    Основные цвета : BT.709
    Характеристики трансфера : BT.709
    Коэффициенты матрицы : BT.709
    Аудио #1
    Идентификатор : 3032 (0xBD8)
    Идентификатор меню : 1234 (0x4D2)
    Формат : AC-3
    Формат/Информация : Audio Coding 3
    Расширение режима : CM (complete main)
    Параметр Endianness формата : Big
    Идентификатор кодека : 6
    Продолжительность : 1 ч. 28 м.
    Вид битрейта : Постоянный
    Битрейт : 448 Кбит/сек
    Каналы : 6 каналов
    Расположение каналов : Front: L C R, Side: L R, LFE
    Частота : 48, 0 КГц
    Частота кадров : 31, 250 кадров/сек (1536 spf)
    Метод сжатия : С потерями
    Размер потока : 283 Мбайт (4%)
    Язык : Russian
    Аудио #2
    Идентификатор : 3033 (0xBD9)
    Идентификатор меню : 1234 (0x4D2)
    Формат : MPEG Audio
    Версия формата : Version 1
    Профиль формата : Layer 2
    Идентификатор кодека : 3
    Продолжительность : 1 ч. 28 м.
    Вид битрейта : Постоянный
    Битрейт : 192 Кбит/сек
    Каналы : 2 канала
    Частота : 48, 0 КГц
    Метод сжатия : С потерями
    Размер потока : 121 Мбайт (2%)
    Язык : Russian

    Скриншоты

    Релиз подготовил: | Silverok
    Залил: silverina64

    Онлайн видео На линии огня


    Размер скачиваемого торрента: 6.45 GB (6921715004 Bytes)

    На линии огня/Ligne de mire (2014) HDTV 1080i от MediaClub | P
    загрузка...
    Рейтинг →
     (голосов: 1, оценка 3/5, голосовать можно 1 раз )

    Другие торренты по теме:

  • На линии огня / In the Line of Fire (1993) BDRip-AVC | D, P, А
  • На линии огня / In the Line of Fire (1993) BDRip 1080p
  • На линии огня / The Fighting Seabees (1944) BDRip от HQCLUB скачать через торрент бесплатно
  • Репортаж с линии огня (1985) SATRip-AVC от New-Team
  • На линии огня / In the Line of Fire (1993) BDRip от HQ-ViDEO | D, P
  • На линии огня / The Fighting Seabees / 1944 / ПМ / DVDRip
  • На линии огня / The Fighting Seabees / 1944 / ПМ / DVD-5


    • Комментарии (0):

      Информация

      Информация

        Посетители, находящиеся в группе Гости, не могут оставлять комментарии в данной новости.

        ↓ Меню



        ↓ Опрос

        А Вы добавили сайт в закладки?
        Да
        Не


        Top 10 за месяц (Фильмы)