.
Авторизация | Регистрация
Хочешь лучшие торренты? Добавь свой email!
Добавить
» » Маргарита / Marguerite (2015) BDRip 720p от ExKinoRay | iTunes торрент скачать бесплатно




    Маргарита / Marguerite (2015) BDRip 720p от ExKinoRay | iTunes торрент скачать бесплатно

    Опубликовал: Админ | Дата: 6-08-2016, 05:00 | Просмотров: 55



    Детально о кино
    Русское название: Маргарита
    Русское название в мировом прокате: Marguerite
    Создали в: 2015
    Категория жанра: Драма
    Главный режиссер: Ксавье Джанноли

    Актеры
    Катрин Фро, Андре Маркон, Мишель Фо, Криста Тере, Сильвен Дьюэд, Обер Фенуй, София Лебутт, Тео Чолби, Астрид Ветналл

    Сюжет фильма

    Париж 20-х годов. Каждый год любители музыки собираются в замке Маргариты Дюмон. Никто почти ничего не знает об этой женщине за исключением того, что она богата и что в ее жизни одна страсть: музыка. Маргарита поет. Она поет искренне, но очень фальшиво. Ей никто никогда не говорил о том, что её пение ужасно. Муж, родственники и друзья поддерживают Маргариту и она продолжает жить в иллюзии. Все осложняется в тот день, когда Маргарита, окончательно уверовав в свой талант певицы, решает выступить в Опере…

    Снималось в: Франция, Чехия, Бельгия
    Киностудия: Canal+ fr, Centre National de la Cin?matographie (CNC), CN5
    Время просмотра: 02: 08: 49
    Перевод текста: Профессиональный многоголосый (закадровый) | iTunes
    Файл
    Кодек для видео: MPEG-4
    Качество фильма: BDRip 720p
    Информация о видео: 1280x534, 3632 Kbit/s, 24.000 fps
    Информация о звуке:
    Информация о звуке #01: 48 kHz, AC3, 5.1, 384 Kbps | Профессиональный многоголосый (закадровый) | iTunes |
    Информация о звуке #02: 48 kHz, DTS, 5.1, 1510 kbps | Оригинал |

    MI
    General
    Unique ID : 189784924068447094928456981449381927305 (0x8EC73F2FF78BE9C4937B7A24479A5989)
    Complete name : G: VideoНовая папка (2)Marguerite.2015.MVO.BDRip.720p.ExKinoRay.mkv
    Format : Matroska
    Format version : Version 4/Version 2
    File size : 4.97 GiB
    Duration : 2h 8mn
    Overall bit rate : 5 528 Kbps
    Movie name : Marguerite.2015.MVO.BDRip.720p.ExKinoRay
    Encoded date : UTC 2016-08-05 19: 14: 52
    Writing application : mkvmerge v8.3.0 (;Over the Horizon;) 64bit
    Writing library : libebml v1.3.1 + libmatroska v1.4.2
    Video
    ID : 1
    Format : AVC
    Format/Info : Advanced Video Codec
    Format profile : High@L4.1
    Format settings, CABAC : Yes
    Format settings, ReFrames : 9 frames
    Codec ID : V_MPEG4/ISO/AVC
    Duration : 2h 8mn
    Bit rate : 3 632 Kbps
    Width : 1 280 pixels
    Height : 534 pixels
    Display aspect ratio : 2.40: 1
    Frame rate mode : Constant
    Frame rate : 24.000 fps
    Color space : YUV
    Chroma subsampling : 4: 2: 0
    Bit depth : 8 bits
    Scan type : Progressive
    Bits/(Pixel*Frame) : 0.221
    Stream size : 3.27 GiB (66%)
    Writing library : x264 core 142 r2431+42 c69a006 tMod 8-bit@4: 2: 0 X86_64
    Encoding settings : cabac=1/ref=9/deblock=1: -3: -3/analyse=0x3: 0x113/me=umh/subme=11/psy=1/fade_compensate=0.00/psy_rd=1.00: 0.00/mixed_ref=1/me_range=32/chroma_me=1/trellis=2/8x8dct=1/cqm=0/deadzone=21, 11/fast_pskip=0/chroma_qp_offset=-3/threads=12/lookahead_threads=3/sliced_threads=0/nr=0/decimate=1/interlaced=0/bluray_compat=0/constrained_intra=0/fgo=0/bframes=10/b_pyramid=2/b_adapt=2/b_bias=0/direct=3/weightb=1/open_gop=0/weightp=2/keyint=250/keyint_min=24/scenecut=40/intra_refresh=0/rc_lookahead=40/rc=crf/mbtree=0/crf=16.0000/qcomp=0.60/qpmin=0: 0: 0/qpmax=69: 69: 69/qpstep=4/vbv_maxrate=30000/vbv_bufsize=30000/crf_max=0.0/nal_hrd=none/filler=0/ip_ratio=1.40/pb_ratio=1.30/aq=4: 1.00/aq-sensitivity=10.00/aq-factor=1.00: 1.00: 1.00/aq2=0/aq3=0
    Language : English
    Default : Yes
    Forced : No
    Color range : Limited
    Matrix coefficients : BT.709
    Audio #1
    ID : 2
    Format : AC-3
    Format/Info : Audio Coding 3
    Mode extension : CM (complete main)
    Format settings, Endianness : Big
    Codec ID : A_AC3
    Duration : 2h 8mn
    Bit rate mode : Constant
    Bit rate : 384 Kbps
    Channel(s) : 6 channels
    Channel positions : Front: L C R, Side: L R, LFE
    Sampling rate : 48.0 KHz
    Frame rate : 31.250 fps (1536 spf)
    Compression mode : Lossy
    Delay relative to video : 1s 212ms
    Stream size : 353 MiB (7%)
    Title : MVO iTunes
    Language : Russian
    Default : Yes
    Forced : No
    Audio #2
    ID : 3
    Format : DTS
    Format/Info : Digital Theater Systems
    Mode : 16
    Format settings, Endianness : Big
    Codec ID : A_DTS
    Duration : 2h 8mn
    Bit rate mode : Constant
    Bit rate : 1 509 Kbps
    Channel(s) : 6 channels
    Channel positions : Front: L C R, Side: L R, LFE
    Sampling rate : 48.0 KHz
    Frame rate : 93.750 fps (512 spf)
    Bit depth : 24 bits
    Compression mode : Lossy
    Stream size : 1.36 GiB (27%)
    Title : Original
    Language : French
    Default : No
    Forced : No
    Menu
    00: 00: 00.000 : en: 1
    00: 01: 55.000 : en: 2
    00: 08: 52.000 : en: 3
    00: 19: 17.000 : en: 4
    00: 30: 03.000 : en: 5
    00: 42: 02.000 : en: 6
    00: 51: 00.000 : en: 7
    01: 01: 28.000 : en: 8
    01: 10: 41.000 : en: 9
    01: 20: 40.000 : en: 10
    01: 32: 35.000 : en: 11
    01: 44: 57.000 : en: 12
    Скриншоты

    Релиз подготовил: Автор релиза:

    Онлайн видео Маргарита


    Размер скачиваемого торрента: 4.97 GB (5336176925 Bytes)

    Маргарита/Marguerite (2015) BDRip 720p от ExKinoRay | iTunes
    загрузка...
    Рейтинг →
     (голосов: 1, оценка 3/5, голосовать можно 1 раз )

    Другие торренты по теме:

  • Маргарита / Marguerite (2015) HDRip-AVC | L1
  • Маргарита / Marguerite (2015) HDRip | iTunes
  • Маргарита / Marguerite (2015) HDRip от MegaPeer | iTunes
  • Маргарита / Marguerite (2015) BDRip 1080p | iTunes
  • Маргарита / Marguerite (2015) BDRemux 1080p от ExKinoRay | iTunes
  • Маргарита и Жюльен / Marguerite et Julien (2015) DVDRip | Sub


    • Комментарии (0):

      Информация

      Информация

        Посетители, находящиеся в группе Гости, не могут оставлять комментарии в данной новости.

        ↓ Меню



        ↓ Опрос

        А Вы добавили сайт в закладки?
        Да
        Не


        Top 10 за месяц (Фильмы)