.
Авторизация | Регистрация
» » Ван Хельсинг / Van Helsing (2016) HDTV 720р | NEON Studio скачать торрент бесплатно




    Ван Хельсинг / Van Helsing (2016) HDTV 720р | NEON Studio скачать торрент бесплатно

    Опубликовал: Админ | Дата: 7-08-2016, 12:59 | Просмотров: 75



    Русское название: Ван Хельсинг
    Русское название в мировом прокате: Van Helsing
    Создали в: 2016
    Категория жанра: ужасы, боевик, драма
    Главный режиссер: Майкл Нанкин, Саймон Бэрри, Дэвид Фрэйзи

    Актеры

    Келли Овертон, Джонатан Скарф, Кристофер Хейердал, Пол Йоханссон, Дэвид Кьюбитт, Сара Дежарден, Дженнифер Коппинг, Бетани Браун и др.
    Описание сериала:
    Действие сериала разворачивается вокруг Ванессы Хельсинг, дочери самого известного охотника на вампиров и заклятого врага Дракулы Абрахама Ван Хельсинга. Девушка оживает в будущем и оказывается в мире, полностью порабощенном вампирами и всякой нечестью. Ванесса открывает в себе исключительную силу над захватчиками, доставшуюся ей от отца, и становится единственным человеком, способным объединить разобщенный народ в борьбе с врагом. Впереди героиню сериала Ван Хельсинг ждут захватывающие и опасные приключения.
    Снималось в: США
    Время просмотра: ~01: 00: 00
    Перевод текста: Любительский (двухголосый) NEON Studio
    Субтитры: Отсутствуют

    Файл
    Тип видео: MKV
    Качество фильма: HDTV (720p)
    Информация о видео: MPEG-4 AVC, ~ 3500 Кбит/с, 1280x720
    Информация о звуке: 48 kHz, AC3 Dolby Digital, 2/0 (L, R) ch, ~192 kbps
    Релиз группа:

    MediaInfo
    Формат : Matroska
    Версия формата : Version 2
    Размер файла : 1004 Мбайт
    Продолжительность : 43 м.
    Общий поток : 3205 Кбит/сек
    Дата кодирования : UTC 2016-08-06 09: 55: 19
    Программа кодирования : mkvmerge v4.9.1 (;Ich will;) сборка от Jul 11 2011 23: 53: 15
    Библиотека кодирования : libebml v1.2.1 + libmatroska v1.1.1
    Видео
    Идентификатор : 1
    Формат : AVC
    Формат/Информация : Advanced Video Codec
    Профиль формата : Main@L5.1
    Параметр CABAC формата : Да
    Параметр ReFrames формата : 1 кадр
    Режим смешивания : Header stripping
    Идентификатор кодека : V_MPEG4/ISO/AVC
    Продолжительность : 43 м.
    Битрейт : 2950 Кбит/сек
    Ширина : 1280 пикселей
    Высота : 720 пикселей
    Соотношение сторон : 16: 9
    Режим частоты кадров : Постоянный
    Частота кадров : 25, 000 кадров/сек
    Цветовое пространство : YUV
    Субдискретизация насыщенности : 4: 2: 0
    Битовая глубина : 8 бит
    Тип развёртки : Прогрессивная
    Бит/(Пиксели*Кадры) : 0.128
    Размер потока : 924 Мбайт (92%)
    Default : Да
    Forced : Нет
    Аудио
    Идентификатор : 2
    Формат : AC-3
    Формат/Информация : Audio Coding 3
    Расширение режима : CM (complete main)
    Параметр Endianness формата : Big
    Режим смешивания : Header stripping
    Идентификатор кодека : A_AC3
    Продолжительность : 43 м.
    Вид битрейта : Постоянный
    Битрейт : 192 Кбит/сек
    Каналы : 2 канала
    Расположение каналов : Front: L R
    Частота : 48, 0 КГц
    Частота кадров : 31, 250 кадров/сек (1536 spf)
    Метод сжатия : С потерями
    Размер потока : 60, 2 Мбайт (6%)
    Default : Да
    Forced : Нет
    Внимание! Раздача ведётся путём добавления новых серий
    Внимание! Раздача ведётся путём добавления новых серий; при каждом добавлении создаётся новый торрент. Чтобы начать докачку новой серии, пользователям необходимо сделать следующее:
    (1) остановить скачивание,
    (2) удалить старый торрент у себя из клиента (старые серии удалять не надо),
    (3) скачать новый торрент и запустить его у себя в клиенте вместо старого, при этом указать клиенту путь в старую папку куда и должно происходить скачивание новых серий.
    Ваш клиент при этом должен произвести хеширование (проверку) старой папки (если не производит сам - помогите ему сделать это), и будет докачивать только те серии которых у вас ещё нет. Старые серии при этом не удаляются, а продолжают раздаваться!
    Eсли вы уже удалили старые серии, то предотвратить повторную закачку старых серий можно, отжав галочку в соответсвующих местах при запуске нового торрента. По возможности, желательно не удалять старые серии как можно дольше чтобы релизёр не столько продолжал раздавать старые серии, а смог сконцентрироваться на новых.
    Скриншоты

    Залил: SPARTA111

    Онлайн видео Ван Хельсинг


    Размер скачиваемого торрента: 0.98 GB (1053292809 Bytes)

    Ван Хельсинг/Van Helsing (2016) HDTV 720р | NEON Studio
    загрузка...
    Рейтинг →
     (голосов: 1, оценка 4/5, голосовать можно 1 раз )

    Другие торренты по теме:

  • Ван Хельсинг / Van Helsing (2004) HDRip от Torrent-Xzona | КПК | D торрент скачать бесплатно
  • OST - Ван Хельсинг / Van Helsing (2004) MP3 торрент скачать бесплатно
  • Ван Хельсинг / Van Helsing (2004) BDRip 1080p от Youtracker скачать через торрент бесплатно
  • Ван Хельсинг / Van Helsing (2004) BDRip 1080p скачать через торрент бесплатно
  • Ван Хельсинг / Van Helsing (2004) HDRip от Sanjar NeoJet | КПК скачать через торрент бесплатно
  • Ван Хельсинг / Van Helsing (2004) BDRip-AVC от Leonardo and Scarabey торрент скачать бесплатно
  • Ван Хельсинг: Лондонское задание / Van Helsing: The London Assignment (2004) DVDRip | Лицензия скачать через торрент бесплатно
  • Ван Хельсинг / Van Helsing (2004) BDRip 720p от MediaClub | D, P2, A торрент скачать бесплатно


    • Комментарии (0):

      Информация

      Информация

        Посетители, находящиеся в группе Гости, не могут оставлять комментарии в данной новости.

        ↓ Меню



        ↓ Опрос

        А Вы добавили сайт в закладки?
        Да
        Не


        Top 10 за неделю (Фильмы)