.
Авторизация | Регистрация
» » План Мэгги / Maggies Plan (2015) HDRip от Portablius | Лицензия скачать торрент бесплатно




    План Мэгги / Maggies Plan (2015) HDRip от Portablius | Лицензия скачать торрент бесплатно

    Опубликовал: Админ | Дата: 8-08-2016, 05:00 | Просмотров: 108



    Детально о кино
    Русское название: План Мэгги
    Русское название в мировом прокате: Maggie;s Plan
    Создали в: 2015
    Категория жанра: Драма, мелодрама, комедия
    Главный режиссер: Ребекка Миллер

    Актеры
    Трэвис Фиммел, Итэн Хоук, Джулианна Мур, Билл Хейдер, Грета Гервиг, Майя Рудольф, Уоллес Шон, Мина Сандвол, Кэтлин Ханна, Алекс Морф

    Сюжет фильма
    Мэгги хочет стать матерью и планирует прибегнуть к искусственному оплодотворению, но её планы нарушаются, когда она знакомится с антропологом Джоном, состоящим в несчастливом браке с Жоржеттой. Мэгги выходит замуж за Джона, но через какое-то время начинает чувствовать себя несчастной, и у неё возникает новый план.

    Снималось в: США
    Киностудия: Franklin Street, Freedom Media, Hyperion Media Group, Locomotive, Round Films
    Время просмотра: 01: 38: 52
    Перевод текста: Профессиональный, многоголосый Лицензия
    Субтитры: Нет
    Семпл
    Файл
    Кодек для видео: XviD
    Качество фильма: HDRip
    Информация о видео: 672x368 (1.83: 1), 23.976 fps, XviD build 73 ~915 kbps avg, 0.15 bit/pixel
    Информация о звуке: 48 kHz, MPEG Layer 3, 2 ch, ~128.00 kbps avg
    MediaInfo
    Общее
    Полное имя : Maggie.s.Plan.2015.HDRip.Portablius.avi
    Формат : AVI
    Формат/Информация : Audio Video Interleave
    Размер файла : 745 Мбайт
    Продолжительность : 1 ч. 38 м.
    Общий поток : 1053 Кбит/сек
    Программа кодирования : VirtualDubMod 1.5.10.3 | www.virtualdub-fr.org || (build 2550/release)
    Библиотека кодирования : VirtualDubMod build 2550/release
    Видео
    Идентификатор : 0
    Формат : MPEG-4 Visual
    Профиль формата : Advanced Simple@L5
    Параметр BVOP формата : 1
    Параметр QPel формата : Нет
    Параметр GMC формата : Без точки перехода
    Параметр матрицы формата : Выборочная
    Идентификатор кодека : XVID
    Идентификатор кодека/Подсказка : XviD
    Продолжительность : 1 ч. 38 м.
    Битрейт : 916 Кбит/сек
    Ширина : 672 пикселя
    Высота : 368 пикселей
    Соотношение сторон : 1, 85: 1
    Частота кадров : 23, 976 (23976/1000) кадра/сек
    Цветовое пространство : YUV
    Субдискретизация насыщенности : 4: 2: 0
    Битовая глубина : 8 бит
    Тип развёртки : Прогрессивная
    Метод сжатия : С потерями
    Бит/(Пиксели*Кадры) : 0.154
    Размер потока : 648 Мбайт (87%)
    Библиотека кодирования : XviD 73
    Аудио
    Идентификатор : 1
    Формат : MPEG Audio
    Версия формата : Version 1
    Профиль формата : Layer 3
    Идентификатор кодека : 55
    Идентификатор кодека/Подсказка : MP3
    Продолжительность : 1 ч. 38 м.
    Вид битрейта : Постоянный
    Битрейт : 128 Кбит/сек
    Каналы : 2 канала
    Частота : 48, 0 КГц
    Метод сжатия : С потерями
    Размер потока : 90, 5 Мбайт (12%)
    Выравнивание : Соединение по промежуткам
    Продолжительность промежутка : 42 мс. (1, 00 видеокадр)
    Время предзагрузки промежутка : 504 мс.
    Библиотека кодирования : LAME3.99r
    Залил: Evgen Portable

    Онлайн видео План Мэгги


    Размер скачиваемого торрента: 744.84 MB (781021184 Bytes)


    План Мэгги/Maggies Plan (2015) HDRip от Portablius | Лицензия
    загрузка...
    Рейтинг →
     (голосов: 1, оценка 4/5, голосовать можно 1 раз )

    Другие торренты по теме:

  • План Мэгги / Maggies Plan (2015) BDRip 720p | Лицензия скачать торрент бесплатно
  • План Мэгги / Maggies Plan (2015) BDRip 1080p | Лицензия скачать торрент бесплатно
  • План Мэгги / Maggies Plan (2015) BDRip 720p | Лицензия скачать торрент бесплатно
  • План Мэгги / Maggies Plan (2015) HDRip от Scarabey | Лицензия скачать торрент бесплатно
  • План Мэгги / Maggies Plan (2015) BDRemux 1080p от ExKinoRay | Лицензия скачать торрент бесплатно
  • План Мэгги / Maggies Plan (2015) BDRip 1080p от ExKinoRay | Лицензия скачать торрент бесплатно
  • План Мэгги / Maggies Plan (2015) BDRip-AVC | Р скачать торрент бесплатно
  • План Мэгги / Maggies Plan (2015) Blu-Ray | US Transfer скачать торрент бесплатно


    • Комментарии (0):

      Информация

      Информация

        Посетители, находящиеся в группе Гости, не могут оставлять комментарии в данной новости.

        ↓ Меню



        ↓ Опрос

        А Вы добавили сайт в закладки?
        Да
        Не


        Top 10 за неделю (Фильмы)