.
Авторизация | Регистрация
» » Страна теней / Shadowlands (1993) WEB-DLRip от MegaPeer | P, P2, A скачать торрент бесплатно




    Страна теней / Shadowlands (1993) WEB-DLRip от MegaPeer | P, P2, A скачать торрент бесплатно

    Опубликовал: Админ | Дата: 9-08-2016, 05:00 | Просмотров: 18



    Детально о кино
    Русское название: Страна теней
    Русское название в мировом прокате: Shadowlands
    Создали в: 1993
    Категория жанра: Драма, мелодрама, биография
    Главный режиссер: Ричард Аттенборо

    Актеры
    Энтони Хопкинс, Дебра Уингер, Джулиан Феллоуз, Родди Мод-Роксби, Майкл Дэнисон, Эндрю Сиар, Тим МакМуллан, Джон Вуд, Эндрю Хоукинс, Питер Хауэлл

    Сюжет фильма

    Фильм основан на реальных событиях. Действие разворачивается в Оксфорде в 1950-х годах. Фильм повествует об истории трагической любви Льюиса к Джой Грэшем и их короткой супружеской жизни, прерванной её смертью от рака.

    Снималось в: Великобритания
    Киностудия: Price Entertainment, Shadowlands Productions, Spelling Films International
    Время просмотра: 02: 11: 40
    Перевод текста: Профессиональный (двухголосый, закадровый) НТВ+, Профессиональный (многоголосый закадровый) т/к Культура, Авторский (одноголосый, закадровый) А.Алексеев
    Файл
    Тип видео: AVI
    Качество фильма: WEB-DLRip
    Информация о видео: XviD, 720x304, 23.976 fps, 1775 kbps
    Информация о звуке#1: AC3, 2/0 (L, R) ch, ~192 kbps | Двухголосый закадровый, НТВ+ |
    Информация о звуке#2: AC3, 2/0 (L, R) ch, ~192 kbps | Многоголосый закадровый, т/к Культура |
    Информация о звуке#3: AC3, 2/0 (L, R) ch, ~192 kbps | Авторский, А.Алексеев |
    Субтитры: Нет
    Релиз:
    Скриншоты

    MediaInfo:
    Общее
    Полное имя : D: 192.168.1.30Shadowlands.1993.WEB-DLRip.2.18Gb.MegaPeer.avi
    Формат : AVI
    Формат/Информация : Audio Video Interleave
    Профиль формата : OpenDML
    Настройки формата : rec
    Размер файла : 2, 17 Гбайт
    Продолжительность : 2 ч. 11 м.
    Общий поток : 2361 Кбит/сек
    Программа кодирования : AVI-Mux GUI 1.17.8.3, Feb 16 201019: 42: 50
    Видео
    Идентификатор : 0
    Формат : MPEG-4 Visual
    Профиль формата : Advanced Simple@L5
    Параметр BVOP формата : 1
    Параметр QPel формата : Нет
    Параметр GMC формата : Без точки перехода
    Параметр матрицы формата : Выборочная
    Идентификатор кодека : XVID
    Идентификатор кодека/Подсказка : XviD
    Продолжительность : 2 ч. 11 м.
    Битрейт : 1776 Кбит/сек
    Ширина : 720 пикселей
    Высота : 304 пикселя
    Соотношение сторон : 2, 35: 1
    Частота кадров : 23, 976 (24000/1001) кадра/сек
    Цветовое пространство : YUV
    Субдискретизация насыщенности : 4: 2: 0
    Битовая глубина : 8 бит
    Тип развёртки : Прогрессивная
    Метод сжатия : С потерями
    Бит/(Пиксели*Кадры) : 0.338
    Размер потока : 1, 63 Гбайт (75%)
    Библиотека кодирования : XviD 73
    Аудио #1
    Идентификатор : 1
    Формат : AC-3
    Формат/Информация : Audio Coding 3
    Расширение режима : CM (complete main)
    Параметр Endianness формата : Big
    Идентификатор кодека : 2000
    Продолжительность : 2 ч. 11 м.
    Вид битрейта : Постоянный
    Битрейт : 192 Кбит/сек
    Каналы : 2 канала
    Расположение каналов : Front: L R
    Частота : 48, 0 КГц
    Частота кадров : 31, 250 кадров/сек (1536 spf)
    Метод сжатия : С потерями
    Размер потока : 181 Мбайт (8%)
    Выравнивание : Соединение по промежуткам
    Продолжительность промежутка : 64 мс. (1, 53 видеокадра)
    Время предзагрузки промежутка : 192 мс.
    Заголовок : НТВ+
    Аудио #2
    Идентификатор : 2
    Формат : AC-3
    Формат/Информация : Audio Coding 3
    Расширение режима : CM (complete main)
    Параметр Endianness формата : Big
    Идентификатор кодека : 2000
    Продолжительность : 2 ч. 11 м.
    Вид битрейта : Постоянный
    Битрейт : 192 Кбит/сек
    Каналы : 2 канала
    Расположение каналов : Front: L R
    Частота : 48, 0 КГц
    Частота кадров : 31, 250 кадров/сек (1536 spf)
    Метод сжатия : С потерями
    Размер потока : 181 Мбайт (8%)
    Выравнивание : Соединение по промежуткам
    Продолжительность промежутка : 64 мс. (1, 53 видеокадра)
    Время предзагрузки промежутка : 192 мс.
    Заголовок : т/к Культура
    Аудио #3
    Идентификатор : 3
    Формат : AC-3
    Формат/Информация : Audio Coding 3
    Расширение режима : CM (complete main)
    Параметр Endianness формата : Big
    Идентификатор кодека : 2000
    Продолжительность : 2 ч. 11 м.
    Вид битрейта : Постоянный
    Битрейт : 192 Кбит/сек
    Каналы : 2 канала
    Расположение каналов : Front: L R
    Частота : 48, 0 КГц
    Частота кадров : 31, 250 кадров/сек (1536 spf)
    Метод сжатия : С потерями
    Размер потока : 181 Мбайт (8%)
    Выравнивание : Соединение по промежуткам
    Продолжительность промежутка : 64 мс. (1, 53 видеокадра)
    Время предзагрузки промежутка : 192 мс.
    Заголовок : А.Алексеев

    Залил: ukollov

    Онлайн видео Страна теней


    Размер скачиваемого торрента: 2.17 GB (2331781484 Bytes)

    Страна теней/Shadowlands (1993) WEB-DLRip от MegaPeer | P, P2, A
    загрузка...
    Рейтинг →
     (голосов: 1, оценка 5/5, голосовать можно 1 раз )

    Другие торренты по теме:



      Комментарии (0):

      Информация

      Информация

        Посетители, находящиеся в группе Гости, не могут оставлять комментарии в данной новости.

        ↓ Меню



        ↓ Опрос

        А Вы добавили сайт в закладки?
        Да
        Не


        Top 10 за неделю (Фильмы)