.
Авторизация | Регистрация
» » Под защитой / EP / Executive Protection (2015) HDTV 1080i от MediaClub | P скачать торрент бесплатно




    Под защитой / EP / Executive Protection (2015) HDTV 1080i от MediaClub | P скачать торрент бесплатно

    Опубликовал: Админ | Дата: 9-08-2016, 05:00 | Просмотров: 15



    Детально о кино
    Русское название: Под защитой
    Русское название в мировом прокате: EP/Executive Protection
    Создали в: 2015
    Категория жанра: Боевик
    Главный режиссер: Оливье Грюнер

    Актеры
    Клодия Уэллс, Саша Митчелл, Кристофер Шоуэрман, Брук Ньютон, Оливье Грюнер, Джейсон Кэбелл, Лоррэйн Зифф, Маршал Хилтон, Микайла С. Кэмпбелл, Тони Невада

    Сюжет фильма

    Макс проработал в специальном подразделение ФБР по программе Защиты Свидетелей. Новое дело, где он должен защищать одного крупного бизнесмена от пуль наемных убийц оказалось слишком сложным и Макс вынужден применить все средства и знания для исполнения очередного заказа.

    Снималось в: США
    Время просмотра: 01: 27: 00
    Перевод текста: Профессиональный многоголосый
    Файл
    Кодек для видео: h.264
    Качество фильма: HDTV 1080i
    Информация о видео: MPEG-4 AVC, ~ 8753 Кбит/с, 1920x1080, 25.000 кадр/с
    Информация о звуке:
    Русский (AC3, 6 ch, 448 Кбит/с)/Профессиональный многоголосый
    Русский (MP2, 2 ch, 192 Кбит/с)/Профессиональный многоголосый
    Семпл
    О релизе
    Автор релиза - Silverok, первоисточник - Кинопоказ HD1

    MI
    General
    ID : 1 (0x1)
    Complete name : C: uTorrentPod.zastsitoi.2015.HDTV.1080i.MediaClub.ts
    Format : MPEG-TS
    File size : 6.01 GiB
    Duration : 1 h 27 min
    Overall bit rate mode : Variable
    Overall bit rate : 9 889 kb/s
    Video
    ID : 3021 (0xBCD)
    Menu ID : 1234 (0x4D2)
    Format : AVC
    Format/Info : Advanced Video Codec
    Format profile : Main@L4
    Format settings, CABAC : Yes
    Format settings, ReFrames : 4 frames
    Format settings, GOP : M=1, N=32
    Codec ID : 27
    Duration : 1 h 26 min
    Bit rate : 8 753 kb/s
    Width : 1 920 pixels
    Height : 1 080 pixels
    Display aspect ratio : 16: 9
    Frame rate : 25.000 FPS
    Color space : YUV
    Chroma subsampling : 4: 2: 0
    Bit depth : 8 bits
    Scan type : Interlaced
    Scan type, store method : Separated fields
    Scan order : Top Field First
    Bits/(Pixel*Frame) : 0.169
    Stream size : 5.32 GiB (89%)
    Color range : Limited
    Color primaries : BT.709
    Transfer characteristics : BT.709
    Matrix coefficients : BT.709
    Audio #1
    ID : 3022 (0xBCE)
    Menu ID : 1234 (0x4D2)
    Format : AC-3
    Format/Info : Audio Coding 3
    Mode extension : CM (complete main)
    Format settings, Endianness : Big
    Codec ID : 6
    Duration : 1 h 26 min
    Bit rate mode : Constant
    Bit rate : 448 kb/s
    Channel(s) : 6 channels
    Channel positions : Front: L C R, Side: L R, LFE
    Sampling rate : 48.0 kHz
    Frame rate : 31.250 FPS (1536 spf)
    Compression mode : Lossy
    Stream size : 279 MiB (5%)
    Language : Russian
    Audio #2
    ID : 3023 (0xBCF)
    Menu ID : 1234 (0x4D2)
    Format : MPEG Audio
    Format version : Version 1
    Format profile : Layer 2
    Codec ID : 3
    Duration : 1 h 26 min
    Bit rate mode : Constant
    Bit rate : 192 kb/s
    Channel(s) : 2 channels
    Sampling rate : 48.0 kHz
    Compression mode : Lossy
    Stream size : 119 MiB (2%)
    Language : Russian

    Скриншоты

    Релиз подготовил: | Silverok
    Залил: silverina64

    Онлайн видео Под защитой


    Размер скачиваемого торрента: 6.01 GB (6452298556 Bytes)

    Под защитой/EP/Executive Protection (2015) HDTV 1080i от MediaClub | P
    загрузка...
    Рейтинг →
     (голосов: 1, оценка 3/5, голосовать можно 1 раз )

    Другие торренты по теме:

  • Под защитой / EP-Executive Protection (2015) WEB-DLRip от MegaPeer | P скачать торрент бесплатно
  • Под защитой / EP-Executive Protection / 2015 / ПМ / HDTV (1080i) скачать торрент бесплатно


    • Комментарии (0):

      Информация

      Информация

        Посетители, находящиеся в группе Гости, не могут оставлять комментарии в данной новости.

        ↓ Меню



        ↓ Опрос

        А Вы добавили сайт в закладки?
        Да
        Не


        Top 10 за неделю (Фильмы)