.
Авторизация | Регистрация
Хочешь лучшие торренты? Добавь свой email!
Добавить
» » Герника / Gernika (2016) WEB-DLRip от Portablius | Line торрент скачать бесплатно




    Герника / Gernika (2016) WEB-DLRip от Portablius | Line торрент скачать бесплатно

    Опубликовал: Админ | Дата: 9-08-2016, 05:01 | Просмотров: 59



    Детально о кино
    Русское название: Герника
    Русское название в мировом прокате: Gernika
    Создали в: 2016
    Категория жанра: мелодрама, военный
    Главный режиссер: Кольдо Серра

    Актеры
    Берн Горман, Джеймс Д’Арси, Джек Девенпорт, Мария Вальверде, Уго Сильва, Ирена Эсколар, Ингрид Гарсия Йонсон, Йоахим Пауль Ассбёк

    Сюжет фильма
    Романтическая драма о разочарованном и циничном американском журналисте, который оказывается единственным вестником правды из испанского города Герника, где зверствует гражданская война. В его работу и дальнейшую судьбу вмешивается местная республиканка Тереза, ответственная за цензуру исходящих новостей...

    Снималось в: Испания
    Киностудия: Anima Pictures, Pecado Films, Pterodactyl Productions, Travis Producciones
    Время просмотра: 01: 50: 25
    Перевод текста: Профессиональный, многоголосый (Официальный звук)
    Субтитры: Нет
    ПРИМЕЧАНИЕ: ПРИСУТСТВУЕТ РЕКЛАМА!
    Семпл
    Файл
    Кодек для видео: XviD
    Качество фильма: WEB-DLRip
    Информация о видео: 688x288 (2.39: 1), 23.976 fps, XviD build 73 ~798 kbps avg, 0.17 bit/pixel
    Информация о звуке: 48 kHz, MPEG Layer 3, 2 ch, ~128.00 kbps avg
    MediaInfo
    Общее
    Полное имя : Gernika.2016.WEB-DLRip.Portablius.avi
    Формат : AVI
    Формат/Информация : Audio Video Interleave
    Размер файла : 746 Мбайт
    Продолжительность : 1 ч. 51 м.
    Общий поток : 936 Кбит/сек
    Программа кодирования : VirtualDubMod 1.5.10.3 | www.virtualdub-fr.org || (build 2550/release)
    Библиотека кодирования : VirtualDubMod build 2550/release
    Видео
    Идентификатор : 0
    Формат : MPEG-4 Visual
    Профиль формата : Advanced Simple@L5
    Параметр BVOP формата : 1
    Параметр QPel формата : Нет
    Параметр GMC формата : Без точки перехода
    Параметр матрицы формата : Выборочная
    Идентификатор кодека : XVID
    Идентификатор кодека/Подсказка : XviD
    Продолжительность : 1 ч. 51 м.
    Битрейт : 799 Кбит/сек
    Ширина : 688 пикселей
    Высота : 288 пикселей
    Соотношение сторон : 2, 40: 1
    Частота кадров : 23, 976 (23976/1000) кадра/сек
    Цветовое пространство : YUV
    Субдискретизация насыщенности : 4: 2: 0
    Битовая глубина : 8 бит
    Тип развёртки : Прогрессивная
    Метод сжатия : С потерями
    Бит/(Пиксели*Кадры) : 0.168
    Размер потока : 637 Мбайт (85%)
    Библиотека кодирования : XviD 73
    Аудио
    Идентификатор : 1
    Формат : MPEG Audio
    Версия формата : Version 1
    Профиль формата : Layer 3
    Идентификатор кодека : 55
    Идентификатор кодека/Подсказка : MP3
    Продолжительность : 1 ч. 51 м.
    Вид битрейта : Постоянный
    Битрейт : 128 Кбит/сек
    Каналы : 2 канала
    Частота : 48, 0 КГц
    Метод сжатия : С потерями
    Размер потока : 102 Мбайт (14%)
    Выравнивание : Соединение по промежуткам
    Продолжительность промежутка : 42 мс. (1, 00 видеокадр)
    Время предзагрузки промежутка : 504 мс.
    Библиотека кодирования : LAME3.99r
    Залил: Evgen Portable

    Онлайн видео Герника


    Размер скачиваемого торрента: 746.07 MB (782307328 Bytes)


    Герника/Gernika (2016) WEB-DLRip от Portablius | Line
    загрузка...
    Рейтинг →
     (голосов: 1, оценка 3/5, голосовать можно 1 раз )

    Другие торренты по теме:

  • Герника / Gernika (2016) WEB-DLRip | L
  • Герника / Gernika (2016) WEB-DL 1080p | L
  • Герника / Gernika (2016) WEB-DL 1080p | P
  • Герника / Gernika (2016) WEB-DL 1080p | P
  • Герника / Gernika (2016) WEB-DLRip от MegaPeer | P
  • Герника / Gernika (2016) DVDRip-AVC от ExKinoRay | P
  • Герника / Gernika (2016) HDRip от MegaPeer | P
  • Герника / Gernika (2016) HDRip | Лицензия


    • Комментарии (0):

      Информация

      Информация

        Посетители, находящиеся в группе Гости, не могут оставлять комментарии в данной новости.

        ↓ Меню



        ↓ Опрос

        А Вы добавили сайт в закладки?
        Да
        Не


        Top 10 за месяц (Фильмы)