.
Авторизация | Регистрация
» » Путь на юг / Southbound (2015) BDRip 720p от ExKinoRay | L1, A скачать торрент бесплатно




    Путь на юг / Southbound (2015) BDRip 720p от ExKinoRay | L1, A скачать торрент бесплатно

    Опубликовал: Админ | Дата: 10-08-2016, 05:00 | Просмотров: 22



    Детально о кино
    Русское название: Путь на юг
    Русское название в мировом прокате: Southbound
    Создали в: 2015
    Категория жанра: Ужасы, фантастика, триллер
    Главный режиссер: Роксанна Бенжамин, Дэвид Брукнер, Патрик Хорват

    Актеры
    Кейт Бихан, Мэттью Беттинелли, Сьюзэн Бурк, Зои Купер, Джералд Дауни, Карла Дродж, Ларри Фессенден, Дэна Гулд, Хасси Харрисон, Дэйв Джонсон
    О фильме:
    Волею судьбы или какой-то другой неведомой силы на шоссе, ведущем на юг, оказываются совершенно разные люди. Все они едут по этой дороге с определенной целью, и у каждого из них имеются свои скелеты в шкафу. Но во время поездки все они столкнуться с непреодолимым кошмаром, который заставит их всерьез задуматься о содеянных поступках..

    Снималось в: США
    Киностудия: Willowbrook Regent Films
    Время просмотра: 01: 29: 03
    Перевод текста: Любительский одноголосый (закадровый) | Васька Куролесов (по переводу Enigma)
    Авторский одноголосый (закадровый) | Дмитрий Есарев
    Файл
    Кодек для видео: MPEG-4
    Качество фильма: BDRip 720p
    Информация о видео: 1280x536, 6383 Kbit/s, 23.976 fps
    Информация о звуке:
    Информация о звуке #01: 48 kHz, AC3, 5.1, 448 Kbps | Любительский одноголосый (закадровый), Васька Куролесов (по переводу Enigma) |
    Информация о звуке #02: 48 kHz, AC3, 5.1, 448 Kbps | Авторский одноголосый (закадровый), Дмитрий Есарев цензура |
    Информация о звуке #03: 48 kHz, AC3, 5.1, 448 Kbps | Авторский одноголосый (закадровый), Дмитрий Есарев без цензуры |
    Информация о звуке #04: 48 kHz, DTS, 5.1, 1510 kbps | Оригинал |
    Субтитры: Английские

    MI
    General
    Unique ID : 182243510718194765701125927488104283478 (0x891AD2CD5F7A9C5EBF7D640DEEDDBD56)
    Complete name : G: VideoSouthbound.2015.BDRip.720p.ExKinoRay.mkv
    Format : Matroska
    Format version : Version 4/Version 2
    File size : 5.73 GiB
    Duration : 1h 28mn
    Overall bit rate : 9 239 Kbps
    Movie name : Southbound.2015.BDRip.720p.ExKinoRay
    Encoded date : UTC 2016-08-09 16: 16: 11
    Writing application : mkvmerge v8.3.0 (;Over the Horizon;) 64bit
    Writing library : libebml v1.3.1 + libmatroska v1.4.2
    Video
    ID : 1
    Format : AVC
    Format/Info : Advanced Video Codec
    Format profile : High@L4.1
    Format settings, CABAC : Yes
    Format settings, ReFrames : 12 frames
    Codec ID : V_MPEG4/ISO/AVC
    Duration : 1h 28mn
    Bit rate : 6 383 Kbps
    Width : 1 280 pixels
    Height : 536 pixels
    Display aspect ratio : 2.40: 1
    Frame rate mode : Constant
    Frame rate : 23.976 (24000/1001) fps
    Color space : YUV
    Chroma subsampling : 4: 2: 0
    Bit depth : 8 bits
    Scan type : Progressive
    Bits/(Pixel*Frame) : 0.388
    Stream size : 3.96 GiB (69%)
    Writing library : x264 core 142 r2431+42 c69a006 tMod 8-bit@4: 2: 0 X86_64
    Encoding settings : cabac=1/ref=12/deblock=1: -2: -2/analyse=0x3: 0x113/me=umh/subme=10/psy=1/fade_compensate=0.00/psy_rd=0.90: 0.00/mixed_ref=1/me_range=48/chroma_me=1/trellis=2/8x8dct=1/cqm=0/deadzone=21, 11/fast_pskip=0/chroma_qp_offset=-2/threads=6/lookahead_threads=1/sliced_threads=0/nr=0/decimate=1/interlaced=0/bluray_compat=0/constrained_intra=0/fgo=0/bframes=6/b_pyramid=2/b_adapt=2/b_bias=0/direct=3/weightb=1/open_gop=0/weightp=2/keyint=250/keyint_min=23/scenecut=40/intra_refresh=0/rc_lookahead=120/rc=crf/mbtree=0/crf=16.2000/qcomp=0.60/qpmin=0: 0: 0/qpmax=32: 32: 32/qpstep=4/vbv_maxrate=30000/vbv_bufsize=38000/crf_max=0.0/nal_hrd=none/filler=0/ip_ratio=1.40/pb_ratio=1.30/aq=4: 0.80/aq-sensitivity=10.00/aq-factor=1.00: 1.00: 1.00/aq2=0/aq3=0
    Language : English
    Default : Yes
    Forced : No
    Color range : Limited
    Color primaries : BT.709
    Transfer characteristics : BT.709
    Matrix coefficients : BT.709
    Audio #1
    ID : 2
    Format : AC-3
    Format/Info : Audio Coding 3
    Mode extension : CM (complete main)
    Format settings, Endianness : Big
    Codec ID : A_AC3
    Duration : 1h 28mn
    Bit rate mode : Constant
    Bit rate : 448 Kbps
    Channel(s) : 6 channels
    Channel positions : Front: L C R, Side: L R, LFE
    Sampling rate : 48.0 KHz
    Frame rate : 31.250 fps (1536 spf)
    Compression mode : Lossy
    Delay relative to video : 12ms
    Stream size : 284 MiB (5%)
    Title : VO (Vasjka Kyrolesov) Enigma translation
    Language : Russian
    Default : Yes
    Forced : No
    Audio #2
    ID : 3
    Format : AC-3
    Format/Info : Audio Coding 3
    Mode extension : CM (complete main)
    Format settings, Endianness : Big
    Codec ID : A_AC3
    Duration : 1h 28mn
    Bit rate mode : Constant
    Bit rate : 448 Kbps
    Channel(s) : 6 channels
    Channel positions : Front: L C R, Side: L R, LFE
    Sampling rate : 48.0 KHz
    Frame rate : 31.250 fps (1536 spf)
    Compression mode : Lossy
    Delay relative to video : 12ms
    Stream size : 284 MiB (5%)
    Title : AVO Esarev цензура
    Language : Russian
    Default : No
    Forced : No
    Audio #3
    ID : 4
    Format : AC-3
    Format/Info : Audio Coding 3
    Mode extension : CM (complete main)
    Format settings, Endianness : Big
    Codec ID : A_AC3
    Duration : 1h 28mn
    Bit rate mode : Constant
    Bit rate : 448 Kbps
    Channel(s) : 6 channels
    Channel positions : Front: L C R, Side: L R, LFE
    Sampling rate : 48.0 KHz
    Frame rate : 31.250 fps (1536 spf)
    Compression mode : Lossy
    Delay relative to video : 12ms
    Stream size : 284 MiB (5%)
    Title : AVO Esarev без.цензуры
    Language : Russian
    Default : No
    Forced : No
    Audio #4
    ID : 5
    Format : DTS
    Format/Info : Digital Theater Systems
    Mode : 16
    Format settings, Endianness : Big
    Codec ID : A_DTS
    Duration : 1h 28mn
    Bit rate mode : Constant
    Bit rate : 1 509 Kbps
    Channel(s) : 6 channels
    Channel positions : Front: L C R, Side: L R, LFE
    Sampling rate : 48.0 KHz
    Frame rate : 93.750 fps (512 spf)
    Bit depth : 24 bits
    Compression mode : Lossy
    Stream size : 958 MiB (16%)
    Title : riginal
    Language : English
    Default : No
    Forced : No
    Text
    ID : 6
    Format : UTF-8
    Codec ID : S_TEXT/UTF8
    Codec ID/Info : UTF-8 Plain Text
    Duration : 1h 25mn
    Bit rate : 41 bps
    Count of elements : 868
    Stream size : 26.2 KiB (0%)
    Title : Full
    Language : English
    Default : No
    Forced : No
    Menu
    00: 00: 00.000 : en: Chapter 01
    00: 07: 20.857 : en: Chapter 02
    00: 15: 01.901 : en: Chapter 03
    00: 21: 37.713 : en: Chapter 04
    00: 29: 04.742 : en: Chapter 05
    00: 36: 01.158 : en: Chapter 06
    00: 40: 06.821 : en: Chapter 07
    00: 50: 18.640 : en: Chapter 08
    00: 55: 06.720 : en: Chapter 09
    01: 06: 15.972 : en: Chapter 10
    01: 11: 54.310 : en: Chapter 11
    01: 25: 51.771 : en: Chapter 12
    Скриншоты

    Релиз подготовил: Автор релиза:
    Автор перевода:

    Онлайн видео Путь на юг


    Размер скачиваемого торрента: 5.73 GB (6152411509 Bytes)

    Путь на юг/Southbound (2015) BDRip 720p от ExKinoRay | L1, A
    загрузка...
    Рейтинг →
     (голосов: 1, оценка 4/5, голосовать можно 1 раз )

    Другие торренты по теме:

  • Путь на юг / Southbound (2015) WEB-DLRip-AVC от torrentfilm | A скачать торрент бесплатно
  • Путь на юг / Southbound (2015) WEB-DL 720p от ExKinoRay | L1, A скачать торрент бесплатно
  • Путь на юг / Southbound (2015) BDRip-AVC от ExKinoRay | A, L1 скачать торрент бесплатно


    • Комментарии (0):

      Информация

      Информация

        Посетители, находящиеся в группе Гости, не могут оставлять комментарии в данной новости.

        ↓ Меню



        ↓ Опрос

        А Вы добавили сайт в закладки?
        Да
        Не


        Top 10 за неделю (Фильмы)