.
Авторизация | Регистрация
Хочешь лучшие торренты? Добавь свой email!
Добавить
» » Присяжная / The Juror (1996) HDTVRip 720p | D, P, A торрент скачать бесплатно




    Присяжная / The Juror (1996) HDTVRip 720p | D, P, A торрент скачать бесплатно

    Опубликовал: Админ | Дата: 11-08-2016, 05:00 | Просмотров: 46



    Детально о кино
    Русское название: Присяжная
    Русское название в мировом прокате: The Juror
    Создали в: 1996
    Категория жанра: триллер, драма
    Главный режиссер: Брайан Гибсон

    Актеры
    Деми Мур, Алек Болдуин, Джозеф Гордон-Левитт, Энн Хеч, Джеймс Гандольфини, Линдси Краус, Тони Ло Бьянко, Майкл Константин, Мэтт Крэйвен, Тодд Зусман

    Сюжет фильма

    Энни, молодая женщина-присяжная знакомится с приятным молодым человеком. Умный и уверенный в себе, он завоевывает девушку, но страсть, вспыхнувшая в ее сердце, может сыграть с ней злую шутку…
    Она не знает, что ее возлюбленный работает на мафию, а связь с ней нужна ему для достижения тайной цели — освобождения главаря преступной группировки и признания его невиновности в суде. Теперь ей нужно поступиться правдой ради спасения сына от преступника-психопата.

    Снималось в: США
    Киностудия: Columbia Pictures Corporation
    Время просмотра: 01: 53: 09
    Перевод текста: Профессиональный (дублированный) + Профессиональный (многоголосый, закадровый) + Профессиональный (многоголосый, закадровый) Видеосервис + Профессиональный (многоголосый, закадровый) CTC + Авторский (одноголосый, закадровый) П.Карцев + Авторский (одноголосый, закадровый) С.Визгунов + Профессиональный (двухголосый, закадровый) 1+1
    Файл
    Тип видео: Matroska
    Информация о видео: 1280х544 at 25.000 fps, x264@L4.1, ~3870 kbps avg
    Информация о звуке#1: Russian: 48 kHz, AC3 Dolby Digital, 3/2 (L, C, R, l, r) + LFE ch, ~384 kbps avg |Дубляж|
    Информация о звуке#2: Russian: 48 kHz, AC3 Dolby Digital, 2/0 (L, R) ch, ~192 kbps avg |Многоголосый закадровый|
    Информация о звуке#3: Russian: 48 kHz, AC3 Dolby Digital, 2/0 (L, R) ch, ~192 kbps avg |Многоголосый закадровый, Видеосервис|
    Информация о звуке#4: Russian: 48 kHz, AC3 Dolby Digital, 2/0 (L, R) ch, ~192 kbps avg |Многоголосый закадровый, CTC|
    Информация о звуке#5: Russian: 48 kHz, AC3 Dolby Digital, 2/0 (L, R) ch, ~192 kbps avg |Авторский, П.Карцев|
    Информация о звуке#6: Russian: 48 kHz, AC3 Dolby Digital, 2/0 (L, R) ch, ~192 kbps avg |Авторский, С.Визгунов|
    Информация о звуке#7: Ukrainian: 48 kHz, AC3 Dolby Digital, 2/0 (L, R) ch, ~192 kbps avg |Двухголосый закадровый, 1+1|
    Информация о звуке#8: English: 48 kHz, AC3 Dolby Digital, 3/2 (L, C, R, l, r) + LFE ch, ~384 kbps avg
    Субтитры: Russian, English, Spanish, Portuguese
    ***Сохранены оригинальные главы.
    ***Релиз - whalekilla.
    MI
    Общее
    Уникальный идентификатор : 178265268851234863836332131853572494625 (0x861CA455AFEE9E678397EC42C0B7D521)
    Полное имя : The.Juror.1996.HDTVRip.(720p).mkv
    Формат : Matroska
    Версия формата : Version 4/Version 2
    Размер файла : 4, 58 Гбайт
    Продолжительность : 1 ч. 53 м.
    Общий поток : 5793 Кбит/сек
    Название фильма : The Juror (1996)
    Дата кодирования : UTC 2016-08-08 23: 23: 00
    Программа кодирования : mkvmerge v6.9.1 (;Blue Panther;) 64bit built on Apr 18 2014 18: 23: 38
    Библиотека кодирования : libebml v1.3.0 + libmatroska v1.4.1
    Видео
    Идентификатор : 1
    Формат : AVC
    Формат/Информация : Advanced Video Codec
    Профиль формата : High@L4.1
    Параметр CABAC формата : Да
    Параметр ReFrames формата : 12 кадров
    Идентификатор кодека : V_MPEG4/ISO/AVC
    Продолжительность : 1 ч. 53 м.
    Номинальный битрейт : 3870 Кбит/сек
    Ширина : 1280 пикселей
    Высота : 544 пикселя
    Соотношение сторон : 2, 35: 1
    Режим частоты кадров : Постоянный
    Частота кадров : 25, 000 кадров/сек
    Цветовое пространство : YUV
    Субдискретизация насыщенности : 4: 2: 0
    Битовая глубина : 8 бит
    Тип развёртки : Прогрессивная
    Бит/(Пиксели*Кадры) : 0.222
    Заголовок : The Juror (1996)
    Библиотека кодирования : x264 core 130 r2273 b3065e6
    Настройки программы : cabac=1/ref=12/deblock=1: -3: -3/analyse=0x3: 0x133/me=umh/subme=11/psy=1/psy_rd=1.00: 0.10/mixed_ref=1/me_range=32/chroma_me=1/trellis=2/8x8dct=1/cqm=0/deadzone=21, 11/fast_pskip=1/chroma_qp_offset=-3/threads=6/lookahead_threads=1/sliced_threads=0/nr=0/decimate=1/interlaced=0/bluray_compat=0/constrained_intra=0/bframes=3/b_pyramid=2/b_adapt=2/b_bias=0/direct=3/weightb=1/open_gop=0/weightp=2/keyint=250/keyint_min=25/scenecut=40/intra_refresh=0/rc_lookahead=60/rc=2pass/mbtree=1/bitrate=3870/ratetol=1.0/qcomp=0.60/qpmin=0/qpmax=69/qpstep=4/cplxblur=20.0/qblur=0.5/ip_ratio=1.40/aq=1: 1.00
    Язык : English
    Default : Да
    Forced : Нет
    Аудио #1
    Идентификатор : 2
    Формат : AC-3
    Формат/Информация : Audio Coding 3
    Расширение режима : CM (complete main)
    Параметр Endianness формата : Big
    Идентификатор кодека : A_AC3
    Продолжительность : 1 ч. 53 м.
    Вид битрейта : Постоянный
    Битрейт : 384 Кбит/сек
    Каналы : 6 каналов
    Расположение каналов : Front: L C R, Side: L R, LFE
    Частота : 48, 0 КГц
    Метод сжатия : С потерями
    Размер потока : 311 Мбайт (7%)
    Заголовок : AC3, 6 ch, 384 Kbps, Dub
    Язык : Russian
    Default : Да
    Forced : Нет
    Аудио #2
    Идентификатор : 3
    Формат : AC-3
    Формат/Информация : Audio Coding 3
    Расширение режима : CM (complete main)
    Параметр Endianness формата : Big
    Идентификатор кодека : A_AC3
    Продолжительность : 1 ч. 53 м.
    Вид битрейта : Постоянный
    Битрейт : 192 Кбит/сек
    Каналы : 2 канала
    Расположение каналов : Front: L R
    Частота : 48, 0 КГц
    Метод сжатия : С потерями
    Размер потока : 155 Мбайт (3%)
    Заголовок : АС3, 2 ch, 192 Kbps, MVO
    Язык : Russian
    Default : Нет
    Forced : Нет
    Аудио #3
    Идентификатор : 4
    Формат : AC-3
    Формат/Информация : Audio Coding 3
    Расширение режима : CM (complete main)
    Параметр Endianness формата : Big
    Идентификатор кодека : A_AC3
    Продолжительность : 1 ч. 53 м.
    Вид битрейта : Постоянный
    Битрейт : 192 Кбит/сек
    Каналы : 2 канала
    Расположение каналов : Front: L R
    Частота : 48, 0 КГц
    Метод сжатия : С потерями
    Размер потока : 155 Мбайт (3%)
    Заголовок : АС3, 2 ch, 192 Kbps, MVO, ;Видеосервис;
    Язык : Russian
    Default : Нет
    Forced : Нет
    Аудио #4
    Идентификатор : 5
    Формат : AC-3
    Формат/Информация : Audio Coding 3
    Расширение режима : CM (complete main)
    Параметр Endianness формата : Big
    Идентификатор кодека : A_AC3
    Продолжительность : 1 ч. 53 м.
    Вид битрейта : Постоянный
    Битрейт : 192 Кбит/сек
    Каналы : 2 канала
    Расположение каналов : Front: L R
    Частота : 48, 0 КГц
    Метод сжатия : С потерями
    Размер потока : 155 Мбайт (3%)
    Заголовок : АС3, 2 ch, 192 Kbps, MVO, ;CTC;
    Язык : Russian
    Default : Нет
    Forced : Нет
    Аудио #5
    Идентификатор : 6
    Формат : AC-3
    Формат/Информация : Audio Coding 3
    Профиль формата : Dolby Digital
    Расширение режима : CM (complete main)
    Параметр Endianness формата : Big
    Идентификатор кодека : A_AC3
    Продолжительность : 1 ч. 53 м.
    Вид битрейта : Постоянный
    Битрейт : 192 Кбит/сек
    Каналы : 2 канала
    Расположение каналов : Front: L R
    Частота : 48, 0 КГц
    Метод сжатия : С потерями
    Размер потока : 155 Мбайт (3%)
    Заголовок : АС3, 2 ch, 192 Kbps, AVO, Петр Карцев
    Язык : Russian
    Default : Нет
    Forced : Нет
    Аудио #6
    Идентификатор : 7
    Формат : AC-3
    Формат/Информация : Audio Coding 3
    Расширение режима : CM (complete main)
    Параметр Endianness формата : Big
    Идентификатор кодека : A_AC3
    Продолжительность : 1 ч. 53 м.
    Вид битрейта : Постоянный
    Битрейт : 192 Кбит/сек
    Каналы : 2 канала
    Расположение каналов : Front: L R
    Частота : 48, 0 КГц
    Метод сжатия : С потерями
    Размер потока : 155 Мбайт (3%)
    Заголовок : АС3, 2 ch, 192 Kbps, AVO, Сергей Визгунов
    Язык : Russian
    Default : Нет
    Forced : Нет
    Аудио #7
    Идентификатор : 8
    Формат : AC-3
    Формат/Информация : Audio Coding 3
    Идентификатор кодека : A_AC3
    Продолжительность : 1 ч. 53 м.
    Каналы : 2 канала
    Частота : 48, 0 КГц
    Метод сжатия : С потерями
    Заголовок : AC3, 2 ch, 192 Kbps, Українська, ;1+1;
    Язык : Ukrainian
    Default : Нет
    Forced : Нет
    Аудио #8
    Идентификатор : 9
    Формат : AC-3
    Формат/Информация : Audio Coding 3
    Идентификатор кодека : A_AC3
    Продолжительность : 1 ч. 53 м.
    Каналы : 6 каналов
    Частота : 48, 0 КГц
    Метод сжатия : С потерями
    Заголовок : AC3, 6 ch, 384 Kbps, Original
    Язык : English
    Default : Нет
    Forced : Нет
    Текст #1
    Идентификатор : 10
    Формат : UTF-8
    Идентификатор кодека : S_TEXT/UTF8
    Идентификатор кодека/Информация : UTF-8 Plain Text
    Заголовок : Леонид Хмельницкий
    Язык : Russian
    Default : Нет
    Forced : Нет
    Текст #2
    Идентификатор : 11
    Формат : UTF-8
    Идентификатор кодека : S_TEXT/UTF8
    Идентификатор кодека/Информация : UTF-8 Plain Text
    Язык : English
    Default : Нет
    Forced : Нет
    Текст #3
    Идентификатор : 12
    Формат : UTF-8
    Идентификатор кодека : S_TEXT/UTF8
    Идентификатор кодека/Информация : UTF-8 Plain Text
    Язык : Spanish
    Default : Нет
    Forced : Нет
    Текст #4
    Идентификатор : 13
    Формат : UTF-8
    Идентификатор кодека : S_TEXT/UTF8
    Идентификатор кодека/Информация : UTF-8 Plain Text
    Язык : Portuguese
    Default : Нет
    Forced : Нет
    Меню
    00: 00: 00.000 : en: Chapter 1
    00: 04: 33.210 : en: Chapter 2
    00: 19: 25.020 : en: Chapter 3
    00: 34: 58.000 : en: Chapter 4
    00: 52: 23.760 : en: Chapter 5
    01: 13: 41.840 : en: Chapter 6
    01: 28: 13.460 : en: Chapter 7
    01: 49: 08.730 : en: Chapter 8
    Скриншоты


    Онлайн видео Присяжная


    Размер скачиваемого торрента: 4.58 GB (4916738278 Bytes)

    Присяжная/The Juror (1996) HDTVRip 720p | D, P, A
    загрузка...
    Рейтинг →
     (голосов: 1, оценка 4/5, голосовать можно 1 раз )

    Другие торренты по теме:

  • Присяжная / The Juror (1996) DVDRip от Leon-masl | D, A
  • Присяжная / The Juror (1996) DVDRip от Scarabey | P
  • Присяжная / The Juror (1996) HDTVRip 720p | D, P, A


    • Комментарии (0):

      Информация

      Информация

        Посетители, находящиеся в группе Гости, не могут оставлять комментарии в данной новости.

        ↓ Меню



        ↓ Опрос

        А Вы добавили сайт в закладки?
        Да
        Не


        Top 10 за месяц (Фильмы)