.
Авторизация | Регистрация
» » Славные парни / The Nice Guys (2016) BDRip 720p от ExKinoRay | iTunes скачать торрент бесплатно




    Славные парни / The Nice Guys (2016) BDRip 720p от ExKinoRay | iTunes скачать торрент бесплатно

    Опубликовал: Админ | Дата: 11-08-2016, 05:00 | Просмотров: 45



    Детально о кино
    Русское название: Славные парни
    Русское название в мировом прокате: The Nice Guys
    Создали в: 2016
    Категория жанра: Криминал, комедия
    Главный режиссер: Шейн Блэк

    Актеры
    Райан Гослинг, Ким Бейсингер, Расселл Кроу, Энгаури Райс, Мэтт Бомер, Маргарет Куэлли, Йайа ДаКоста, Кит Дэвид, Бо Напп, Лоис Смит
    О фильме:
    Что может объединить двух совершенно разных людей - частного сыщика Марчи Холланда и наёмного вышибалу Хили Джексона? Лос-Анджелес 1970 год. Два, кажется несвязанных между собой дела, которые взялись расследовать эти разные по профессиям и жизненным позициям человека, пропажа девушки и смерть порнозвезды. В ходе расследования нити этих дел приведут к шокирующему результату - заговор в высших эшелонах власти!

    Снималось в: США, Великобритания
    Киностудия: Bloom, Lip Sync Productions, Misty Mountains
    Время просмотра: 01: 49: 48
    Перевод текста: Дублированный | iTunes
    Файл
    Кодек для видео: x264
    Качество фильма: BDRip 720p
    Информация о видео: 1280x534, 3536 Kbit/s, 23.976 fps
    Информация о звуке:
    Информация о звуке #01: 48 kHz, AC3, 5.1, 384 Kbps | Дублированный, iTunes |
    Информация о звуке #02: 48 kHz, DTS, 5.1, 1510 kbps | Оригинал |
    Субтитры: Английские

    MI
    General
    Unique ID : 197414825558128125003517232525703642971 (0x9484B65FE6BD86A684DCE6ECFB23FF5B)
    Complete name : G: VideoThe.Nice.Guys.2016.D.BDRip.720p.ExKinoRay.mkv
    Format : Matroska
    Format version : Version 4/Version 2
    File size : 4.40 GiB
    Duration : 1h 55mn
    Overall bit rate : 5 431 Kbps
    Movie name : The.Nice.Guys.2016.D.BDRip.720p.ExKinoRay
    Encoded date : UTC 2016-08-10 13: 46: 57
    Writing application : mkvmerge v8.3.0 (;Over the Horizon;) 64bit
    Writing library : libebml v1.3.1 + libmatroska v1.4.2
    Video
    ID : 1
    Format : AVC
    Format/Info : Advanced Video Codec
    Format profile : High@L4.1
    Format settings, CABAC : Yes
    Format settings, ReFrames : 12 frames
    Codec ID : V_MPEG4/ISO/AVC
    Duration : 1h 55mn
    Bit rate : 3 536 Kbps
    Width : 1 280 pixels
    Height : 534 pixels
    Display aspect ratio : 2.40: 1
    Frame rate mode : Constant
    Frame rate : 23.976 (24000/1001) fps
    Color space : YUV
    Chroma subsampling : 4: 2: 0
    Bit depth : 8 bits
    Scan type : Progressive
    Bits/(Pixel*Frame) : 0.216
    Stream size : 2.86 GiB (65%)
    Writing library : x264 core 148 r2699+6+41 29a38aa Yuuki 8-bit@4: 2: 0 X86_64GCC 5.3.0
    Encoding settings : cabac=1/ref=12/deblock=1: -3: -3/analyse=0x3: 0x113/me=umh/subme=11/psy=1/fade_compensate=0.00/psy_rd=1.00: 0.05/mixed_ref=1/me_range=32/chroma_me=1/trellis=2/8x8dct=1/cqm=0/deadzone=21, 11/fast_pskip=0/chroma_qp_offset=-4/threads=24/lookahead_threads=4/sliced_threads=0/nr=0/decimate=1/interlaced=0/bluray_compat=0/constrained_intra=0/fgo=0/bframes=8/b_pyramid=2/b_adapt=2/b_bias=0/direct=3/weightb=1/open_gop=0/weightp=2/keyint=250/keyint_min=23/scenecut=40/intra_refresh=0/rc=crf/mbtree=0/crf=17.8000/qcomp=0.60/qpmin=0: 0: 0/qpmax=69: 69: 69/qpstep=4/ip_ratio=1.40/pb_ratio=1.30/aq=3: 0.90
    Language : English
    Default : Yes
    Forced : No
    Audio #1
    ID : 2
    Format : AC-3
    Format/Info : Audio Coding 3
    Mode extension : CM (complete main)
    Format settings, Endianness : Big
    Codec ID : A_AC3
    Duration : 1h 55mn
    Bit rate mode : Constant
    Bit rate : 384 Kbps
    Channel(s) : 6 channels
    Channel positions : Front: L C R, Side: L R, LFE
    Sampling rate : 48.0 KHz
    Frame rate : 31.250 fps (1536 spf)
    Compression mode : Lossy
    Delay relative to video : 2s 0ms
    Stream size : 318 MiB (7%)
    Title : iTunes
    Language : Russian
    Default : Yes
    Forced : No
    Audio #2
    ID : 3
    Format : DTS
    Format/Info : Digital Theater Systems
    Mode : 16
    Format settings, Endianness : Big
    Codec ID : A_DTS
    Duration : 1h 55mn
    Bit rate mode : Constant
    Bit rate : 1 509 Kbps
    Channel(s) : 6 channels
    Channel positions : Front: L C R, Side: L R, LFE
    Sampling rate : 48.0 KHz
    Frame rate : 93.750 fps (512 spf)
    Bit depth : 24 bits
    Compression mode : Lossy
    Stream size : 1.22 GiB (28%)
    Title : Original
    Language : English
    Default : No
    Forced : No
    Text
    ID : 4
    Format : UTF-8
    Codec ID : S_TEXT/UTF8
    Codec ID/Info : UTF-8 Plain Text
    Duration : 1h 50mn
    Bit rate : 78 bps
    Count of elements : 2115
    Stream size : 63.4 KiB (0%)
    Title : Full
    Language : English
    Default : No
    Forced : No
    Menu
    00: 00: 00.000 : en: 00: 00: 00.000
    00: 10: 41.683 : en: 00: 10: 41.683
    00: 21: 07.308 : en: 00: 21: 07.308
    00: 29: 12.876 : en: 00: 29: 12.876
    00: 40: 12.744 : en: 00: 40: 12.744
    00: 50: 50.464 : en: 00: 50: 50.464
    01: 01: 02.033 : en: 01: 01: 02.033
    01: 10: 15.420 : en: 01: 10: 15.420
    01: 19: 59.086 : en: 01: 19: 59.086
    01: 29: 40.709 : en: 01: 29: 40.709
    01: 40: 10.338 : en: 01: 40: 10.338
    01: 48: 35.801 : en: 01: 48: 35.801
    01: 50: 49.977 : en: 01: 50: 49.977
    Скриншоты

    Релиз подготовил: Автор релиза:

    Онлайн видео Славные парни


    Размер скачиваемого торрента: 4.40 GB (4723326828 Bytes)

    Славные парни/The Nice Guys (2016) BDRip 720p от ExKinoRay | iTunes
    загрузка...
    Рейтинг →
     (голосов: 1, оценка 4/5, голосовать можно 1 раз )

    Другие торренты по теме:

  • Славные парни / Goodfellas (1990) BDRip-AVC | iPad торрент скачать бесплатно
  • Славные парни / Goodfellas (1990) BDRip 1080p торрент скачать бесплатно
  • Славные парни / Goodfellas (1990) BDRip-AVC от ExKinoRay скачать через торрент бесплатно
  • Славные парни / Goodfellas (1990) BDRip 720p | D скачать торрент бесплатно
  • Славные парни / Goodfellas (1990) BDRip 1080p | 25th Anniversary Edition скачать торрент бесплатно
  • Славные парни / Goodfellas (1990) BDRip от MediaClub | КПК скачать торрент бесплатно
  • Славные парни / Goodfellas (1990) BDRip 1080p от NNNB | D,P2 | Remastered from a 4k скачать торрент бесплатно
  • Славные парни (2016) скачать торрент бесплатно


    • Комментарии (0):

      Информация

      Информация

        Посетители, находящиеся в группе Гости, не могут оставлять комментарии в данной новости.

        ↓ Меню



        ↓ Опрос

        А Вы добавили сайт в закладки?
        Да
        Не


        Top 10 за неделю (Фильмы)