.
Авторизация | Регистрация
» » Сомния / Before I Wake (2016) HDRip от Portablius | iTunes скачать торрент бесплатно




    Сомния / Before I Wake (2016) HDRip от Portablius | iTunes скачать торрент бесплатно

    Опубликовал: Админ | Дата: 12-08-2016, 05:00 | Просмотров: 14



    Детально о кино
    Русское название: Сомния
    Русское название в мировом прокате: Before I Wake
    Создали в: 2016
    Категория жанра: ужасы, фэнтези, триллер, драма
    Главный режиссер: Майк Флэнеган

    Актеры
    Джейкоб Тремблэ, Кейт Босворт, Томас Джейн, Скотти Томпсон, Аннабет Гиш, Дэш Майок, Джей Карнс, Кайла Дивер

    Сюжет фильма
    У молодой пары, потерявшей маленького сына, появляется второй шанс на счастливую жизнь, когда они берут из приюта замечательного восьмилетнего Коди. По неизвестной им причине он очень боится засыпать по ночам, но вскоре оказывается, что дело в необычном даре Коди — пока он спит, его сны оживают. Каждую ночь новым родителям могут явиться либо прекрасные видения его воображения, либо леденящие душу порождения его кошмаров. И эти кошмары — смертельно опасны...

    Снималось в: США
    Киностудия: Demarest Films, Intrepid Pictures, MICA Entertainment
    Время просмотра: 01: 36: 41
    Перевод текста: Профессиональный (полное дублирование) | iTunes
    Субтитры: Нет
    Семпл
    Файл
    Кодек для видео: XviD
    Качество фильма: HDRip
    Информация о видео: 720x304 (2.37: 1), 23.976 fps, XviD build 73 ~872 kbps avg, 0.17 bit/pixel
    Информация о звуке: 48 kHz, MPEG Layer 3, 2 ch, ~192.00 kbps avg
    MediaInfo
    Общее
    Полное имя : Somniya.2016.HDRip.ot.Portablius.avi
    Формат : AVI
    Формат/Информация : Audio Video Interleave
    Размер файла : 743 Мбайт
    Продолжительность : 1 ч. 36 м.
    Общий поток : 1074 Кбит/сек
    Программа кодирования : VirtualDubMod 1.5.10.3 | www.virtualdub-fr.org || (build 2550/release)
    Библиотека кодирования : VirtualDubMod build 2550/release
    Видео
    Идентификатор : 0
    Формат : MPEG-4 Visual
    Профиль формата : Advanced Simple@L5
    Параметр BVOP формата : 1
    Параметр QPel формата : Нет
    Параметр GMC формата : Без точки перехода
    Параметр матрицы формата : Выборочная
    Идентификатор кодека : XVID
    Идентификатор кодека/Подсказка : XviD
    Продолжительность : 1 ч. 36 м.
    Битрейт : 873 Кбит/сек
    Ширина : 720 пикселей
    Высота : 304 пикселя
    Соотношение сторон : 2, 35: 1
    Частота кадров : 23, 976 (23976/1000) кадра/сек
    Цветовое пространство : YUV
    Субдискретизация насыщенности : 4: 2: 0
    Битовая глубина : 8 бит
    Тип развёртки : Прогрессивная
    Метод сжатия : С потерями
    Бит/(Пиксели*Кадры) : 0.166
    Размер потока : 604 Мбайт (81%)
    Библиотека кодирования : XviD 73
    Аудио
    Идентификатор : 1
    Формат : MPEG Audio
    Версия формата : Version 1
    Профиль формата : Layer 3
    Идентификатор кодека : 55
    Идентификатор кодека/Подсказка : MP3
    Продолжительность : 1 ч. 36 м.
    Вид битрейта : Постоянный
    Битрейт : 192 Кбит/сек
    Каналы : 2 канала
    Частота : 48, 0 КГц
    Метод сжатия : С потерями
    Размер потока : 133 Мбайт (18%)
    Выравнивание : Соединение по промежуткам
    Продолжительность промежутка : 42 мс. (1, 00 видеокадр)
    Время предзагрузки промежутка : 504 мс.
    Библиотека кодирования : LAME3.99r
    Залил: Evgen Portable

    Онлайн видео Сомния


    Размер скачиваемого торрента: 742.84 MB (778921984 Bytes)


    Сомния/Before I Wake (2016) HDRip от Portablius | iTunes
    загрузка...
    Рейтинг →
     (голосов: 1, оценка 4/5, голосовать можно 1 раз )

    Другие торренты по теме:

  • Сомния / Before I Wake (2016) WEBRip-AVC | D | звук с TS скачать торрент бесплатно
  • Сомния / Before I Wake (2016) BDRemux 1080p от ExKinoRay | iTunes скачать торрент бесплатно
  • Сомния / Before I Wake (2016) BDRip от ExKinoRay | iTunes скачать торрент бесплатно
  • Сомния / Before I Wake (2016) BDRip 720p от ExKinoRay | iTunes скачать торрент бесплатно
  • Сомния / Before I Wake (2016) BDRip 720p | iTunes скачать торрент бесплатно
  • Сомния / Before I Wake (2016) HDRip от Scarabey | iTunes скачать торрент бесплатно
  • Сомния / Before I Wake (2016) HDRip от Kaztorrents | КПК | iTunes скачать торрент бесплатно
  • Сомния / Before I Wake (2016) BDRip HEVC 1080p | iTunes скачать торрент бесплатно


    • Комментарии (0):

      Информация

      Информация

        Посетители, находящиеся в группе Гости, не могут оставлять комментарии в данной новости.

        ↓ Меню



        ↓ Опрос

        А Вы добавили сайт в закладки?
        Да
        Не


        Top 10 за неделю (Фильмы)