.
Авторизация | Регистрация
» » #Хоррор / #Horror (2015) WEB-DLRip-AVC | L1 скачать торрент бесплатно




    #Хоррор / #Horror (2015) WEB-DLRip-AVC | L1 скачать торрент бесплатно

    Опубликовал: Админ | Дата: 12-08-2016, 05:01 | Просмотров: 47



    Детально о кино
    Русское название: #Хоррор
    Русское название в мировом прокате: #Horror
    Создали в: 2015
    Категория жанра: ужасы, триллер, драма, детектив
    Главный режиссер: Тара Сабкофф

    Актеры
    Хлоя Севиньи, Тимоти Хаттон, Бальтазар Гетти, Стелла Шнабель, Sadie Seelert, Хейли Мерфи, Бриджет МакГарри, Блу Линдеберг, Мина Сандвол, Эмма Адлер
    Слоган: Смерть в тренде

    Сюжет фильма
    Героини фильма - это девчонки - малолетки, решившие на выходных развлечься и поучаствовать в онлайн-игре. Для победы нужны выкладывать свои фото и получать лайки. Но их погоня за популярностью заходит настолько далеко, что вечер превращается в кровавую баню.

    Снималось в: США/AST Studios, Lowland Pictures
    Время просмотра: 01: 37: 53
    Перевод текста: Любительский (одноголосый) xixidok
    Файл
    Качество фильма: WEB-DLRip-AVC
    Тип видео: MKV
    Информация о видео: AVC, 3696 Kb/s, 1008x416
    Информация о звуке: Russian: AC3, 192 Kb/s (2 ch), English: AC3, 384 Kb/s (6 ch)
    Субтитры: English


    Релиз подготовил:
    MediaInfo:
    Format : Matroska
    Format version : Version 4/Version 2
    File size : 2.92 GiB
    Duration : 1 h 37 min
    Overall bit rate : 4 271 kb/s
    Movie name : Rip by basma4i
    Encoded date : UTC 2016-08-10 02: 38: 08
    Writing application : mkvmerge v9.3.1 (;Mask Machine;) 64bit
    Writing library : libebml v1.3.4 + libmatroska v1.4.5
    Video
    ID : 1
    Format : AVC
    Format/Info : Advanced Video Codec
    Format profile : High@L4.1
    Format settings, CABAC : Yes
    Format settings, ReFrames : 12 frames
    Codec ID : V_MPEG4/ISO/AVC
    Duration : 1 h 37 min
    Bit rate : 3 696 kb/s
    Width : 1 008 pixels
    Height : 416 pixels
    Display aspect ratio : 2.40: 1
    Frame rate mode : Constant
    Frame rate : 23.976 (24000/1001) FPS
    Color space : YUV
    Chroma subsampling : 4: 2: 0
    Bit depth : 8 bits
    Scan type : Progressive
    Bits/(Pixel*Frame) : 0.368
    Stream size : 2.52 GiB (86%)
    Writing library : x264 core 146 r2538 121396c
    Encoding settings : cabac=1/ref=12/deblock=1: -3: -3/analyse=0x3: 0x133/me=umh/subme=11/psy=1/psy_rd=1.00: 0.20/mixed_ref=1/me_range=48/chroma_me=1/trellis=2/8x8dct=1/cqm=0/deadzone=21, 11/fast_pskip=0/chroma_qp_offset=-3/threads=6/lookahead_threads=1/sliced_threads=0/nr=0/decimate=0/interlaced=0/bluray_compat=0/constrained_intra=0/bframes=10/b_pyramid=2/b_adapt=1/b_bias=0/direct=3/weightb=1/open_gop=0/weightp=2/keyint=250/keyint_min=23/scenecut=40/intra_refresh=0/rc_lookahead=40/rc=2pass/mbtree=0/bitrate=3696/ratetol=1.0/qcomp=0.60/qpmin=0/qpmax=69/qpstep=4/cplxblur=20.0/qblur=0.5/vbv_maxrate=26000/vbv_bufsize=35000/nal_hrd=none/filler=0/ip_ratio=1.40/pb_ratio=1.30/aq=1: 1.00
    Language : English
    Default : Yes
    Forced : No
    Audio #1
    ID : 2
    Format : AC-3
    Format/Info : Audio Coding 3
    Mode extension : CM (complete main)
    Format settings, Endianness : Big
    Codec ID : A_AC3
    Duration : 1 h 37 min
    Bit rate mode : Constant
    Bit rate : 192 kb/s
    Channel(s) : 2 channels
    Channel positions : Front: L R
    Sampling rate : 48.0 kHz
    Frame rate : 31.250 FPS (1536 spf)
    Compression mode : Lossy
    Stream size : 134 MiB (4%)
    Language : Russian
    Default : Yes
    Forced : No
    Audio #2
    ID : 3
    Format : AC-3
    Format/Info : Audio Coding 3
    Mode extension : CM (complete main)
    Format settings, Endianness : Big
    Codec ID : A_AC3
    Duration : 1 h 37 min
    Bit rate mode : Constant
    Bit rate : 384 kb/s
    Channel(s) : 6 channels
    Channel positions : Front: L C R, Side: L R, LFE
    Sampling rate : 48.0 kHz
    Frame rate : 31.250 FPS (1536 spf)
    Compression mode : Lossy
    Stream size : 269 MiB (9%)
    Language : English
    Default : No
    Forced : No
    Text
    ID : 4
    Format : UTF-8
    Codec ID : S_TEXT/UTF8
    Codec ID/Info : UTF-8 Plain Text
    Duration : 1 h 28 min
    Bit rate : 78 b/s
    Count of elements : 1232
    Stream size : 51.0 KiB (0%)
    Language : English
    Default : No
    Forced : No
    Menu
    00: 00: 00.000 : en: 1
    00: 10: 29.000 : en: 2
    00: 19: 41.000 : en: 3
    00: 30: 17.000 : en: 4
    00: 40: 12.000 : en: 5
    00: 52: 32.000 : en: 6
    01: 01: 01.000 : en: 7
    01: 10: 38.000 : en: 8
    01: 20: 48.000 : en: 9
    01: 29: 59.000 : en: 10
    Скриншоты

    Размер скачиваемого торрента: 2.92 GB (3135340970 Bytes)

    #Хоррор/#Horror (2015) WEB-DLRip-AVC | L1
    загрузка...
    Рейтинг →
     (голосов: 1, оценка 3/5, голосовать можно 1 раз )

    Другие торренты по теме:

  • Шоу ужасов Рокки Хоррора / The Rocky Horror Picture Show (1975) HDRip торрент скачать бесплатно


    • Комментарии (0):

      Информация

      Информация

        Посетители, находящиеся в группе Гости, не могут оставлять комментарии в данной новости.

        ↓ Меню



        ↓ Опрос

        А Вы добавили сайт в закладки?
        Да
        Не


        Top 10 за неделю (Фильмы)