.
Авторизация | Регистрация
» » Мобильник / Cell (2016) BDRip 1080p от ExKinoRay | D, A | iTunes скачать торрент бесплатно




    Мобильник / Cell (2016) BDRip 1080p от ExKinoRay | D, A | iTunes скачать торрент бесплатно

    Опубликовал: Админ | Дата: 13-08-2016, 05:00 | Просмотров: 59



    Детально о кино
    Русское название: Мобильник
    Русское название в мировом прокате: Cell
    Создали в: 2016
    Категория жанра: Ужасы, фантастика, триллер
    Главный режиссер: Тод Кип Уильямс

    Актеры
    Джон Кьюсак, Сэмюэл Л. Джексон, Изабель Фурман, Кларк Сарулло, Итан Эндрю Касто, Оуэн Тиг, Джошуа Микель, Энтони Рейнольдс, Эрин Элизабет Барнс
    О фильме:
    История художника Клайтона Ридделла, становящегося свидетелем разрушительного действия некоего опасного импульса, источающегося сотовыми телефонами (скорость его распространения невероятно высока) и превращающего попавших под его влияние людей в безумцев. В компании нескольких незараженных героев он отправляется на поиски своей супруги и сына, чтобы выяснить, удалось ли спастись его семье.

    Снималось в: США
    Киностудия: Genre Co., The, Benaroya Pictures, Cargo Entertainment
    Время просмотра: 01: 38: 08
    Перевод текста: Дублированный | iTunes
    Авторский одноголосый (закадровый) | Матвеев
    Файл
    Кодек для видео: x264
    Качество фильма: BDRip 1080p
    Информация о видео: 1920x800, 13.4 Мbit/s, 23.976 fps
    Информация о звуке:
    Информация о звуке #01: 48 kHz, AC3, 5.1, 384 Kbps | Дублированный, iTunes |
    Информация о звуке #02: 48 kHz, AC3, 5.1, 448 Kbps | Авторский одноголосый (закадровый) | Матвеев |
    Информация о звуке #03: 48 kHz, DTS, 5.1, 1510 kbps | Оригинал |
    Субтитры: Русские, английские

    MI
    General
    Unique ID : 199345466336989282778301199258701174677 (0x95F88A506BBBC0BEBE0E295D34A69795)
    Complete name : G: VideoCell.2016.BDRip.1080p.ExKinoRay.mkv
    Format : Matroska
    Format version : Version 4/Version 2
    File size : 10.7 GiB
    Duration : 1h 37mn
    Overall bit rate : 15.7 Mbps
    Movie name : Cell.2016.BDRip.1080p.ExKinoRay
    Encoded date : UTC 2016-08-12 06: 40: 58
    Writing application : mkvmerge v8.3.0 (;Over the Horizon;) 64bit
    Writing library : libebml v1.3.1 + libmatroska v1.4.2
    Video
    ID : 1
    Format : AVC
    Format/Info : Advanced Video Codec
    Format profile : High@L4.1
    Format settings, CABAC : Yes
    Format settings, ReFrames : 5 frames
    Codec ID : V_MPEG4/ISO/AVC
    Duration : 1h 37mn
    Bit rate : 13.4 Mbps
    Width : 1 920 pixels
    Height : 800 pixels
    Display aspect ratio : 2.40: 1
    Frame rate mode : Constant
    Frame rate : 23.976 (24000/1001) fps
    Color space : YUV
    Chroma subsampling : 4: 2: 0
    Bit depth : 8 bits
    Scan type : Progressive
    Bits/(Pixel*Frame) : 0.364
    Stream size : 9.11 GiB (85%)
    Writing library : x264 core 146 r2538 121396c
    Encoding settings : cabac=1/ref=5/deblock=1: -3: -3/analyse=0x3: 0x133/me=tesa/subme=11/psy=1/psy_rd=1.04: 0.00/mixed_ref=1/me_range=32/chroma_me=1/trellis=2/8x8dct=1/cqm=0/deadzone=21, 11/fast_pskip=0/chroma_qp_offset=-2/threads=60/lookahead_threads=6/sliced_threads=0/nr=0/decimate=0/interlaced=0/bluray_compat=0/constrained_intra=0/bframes=10/b_pyramid=2/b_adapt=2/b_bias=0/direct=3/weightb=1/open_gop=0/weightp=2/keyint=240/keyint_min=23/scenecut=40/intra_refresh=0/rc_lookahead=150/rc=crf/mbtree=0/crf=18.8/qcomp=0.60/qpmin=0/qpmax=69/qpstep=4/vbv_maxrate=62500/vbv_bufsize=78125/crf_max=0.0/nal_hrd=none/filler=0/ip_ratio=1.40/pb_ratio=1.30/aq=1: 0.80
    Language : English
    Default : Yes
    Forced : No
    Audio #1
    ID : 2
    Format : AC-3
    Format/Info : Audio Coding 3
    Mode extension : CM (complete main)
    Format settings, Endianness : Big
    Codec ID : A_AC3
    Duration : 1h 37mn
    Bit rate mode : Constant
    Bit rate : 384 Kbps
    Channel(s) : 6 channels
    Channel positions : Front: L C R, Side: L R, LFE
    Sampling rate : 48.0 KHz
    Frame rate : 31.250 fps (1536 spf)
    Compression mode : Lossy
    Stream size : 268 MiB (2%)
    Title : DUB
    Language : Russian
    Default : Yes
    Forced : No
    Audio #2
    ID : 3
    Format : AC-3
    Format/Info : Audio Coding 3
    Mode extension : CM (complete main)
    Format settings, Endianness : Big
    Codec ID : A_AC3
    Duration : 1h 37mn
    Bit rate mode : Constant
    Bit rate : 448 Kbps
    Channel(s) : 6 channels
    Channel positions : Front: L C R, Side: L R, LFE
    Sampling rate : 48.0 KHz
    Frame rate : 31.250 fps (1536 spf)
    Compression mode : Lossy
    Delay relative to video : 28ms
    Stream size : 312 MiB (3%)
    Title : AVO
    Language : Russian
    Default : No
    Forced : No
    Audio #3
    ID : 4
    Format : DTS
    Format/Info : Digital Theater Systems
    Mode : 16
    Format settings, Endianness : Big
    Codec ID : A_DTS
    Duration : 1h 37mn
    Bit rate mode : Constant
    Bit rate : 1 509 Kbps
    Channel(s) : 6 channels
    Channel positions : Front: L C R, Side: L R, LFE
    Sampling rate : 48.0 KHz
    Frame rate : 93.750 fps (512 spf)
    Bit depth : 24 bits
    Compression mode : Lossy
    Stream size : 1.03 GiB (10%)
    Title : Original
    Language : English
    Default : No
    Forced : No
    Text #1
    ID : 5
    Format : UTF-8
    Codec ID : S_TEXT/UTF8
    Codec ID/Info : UTF-8 Plain Text
    Duration : 1h 32mn
    Bit rate : 65 bps
    Count of elements : 577
    Stream size : 44.5 KiB (0%)
    Title : Full
    Language : Russian
    Default : No
    Forced : No
    Text #2
    ID : 6
    Format : UTF-8
    Codec ID : S_TEXT/UTF8
    Codec ID/Info : UTF-8 Plain Text
    Duration : 1h 30mn
    Bit rate : 42 bps
    Count of elements : 874
    Stream size : 28.0 KiB (0%)
    Title : Full
    Language : English
    Default : No
    Forced : No
    Text #3
    ID : 7
    Format : UTF-8
    Codec ID : S_TEXT/UTF8
    Codec ID/Info : UTF-8 Plain Text
    Duration : 1h 32mn
    Bit rate : 46 bps
    Count of elements : 899
    Stream size : 31.8 KiB (0%)
    Title : SDH
    Language : English
    Default : No
    Forced : No
    Menu
    00: 00: 00.000 : en: Chapter 01
    00: 09: 20.768 : en: Chapter 02
    00: 23: 27.697 : en: Chapter 03
    00: 40: 51.949 : en: Chapter 04
    00: 55: 54.559 : en: Chapter 05
    01: 09: 27.788 : en: Chapter 06
    01: 20: 39.209 : en: Chapter 07
    01: 32: 47.061 : en: Chapter 08
    Скриншоты

    Релиз подготовил: Автор релиза:

    Онлайн видео Мобильник


    Размер скачиваемого торрента: 10.71 GB (11498635564 Bytes)

    Мобильник/Cell (2016) BDRip 1080p от ExKinoRay | D, A | iTunes
    загрузка...
    Рейтинг →
     (голосов: 1, оценка 3/5, голосовать можно 1 раз )

    Другие торренты по теме:

  • Мобильник / Cell (2016) WEB-DL 720p | L скачать торрент бесплатно
  • Мобильник / Cell (2016) WEB-DLRip | L скачать торрент бесплатно
  • Мобильник / Cell (2016) HDRip от Scarabey | A скачать торрент бесплатно
  • Мобильник / Cell (2016) WEB-DLRip от Generalfilm | КПК | iTunes скачать торрент бесплатно
  • Мобильник / Cell (2016) WEB-DL 1080p | iTunes скачать торрент бесплатно
  • Мобильник / Cell (2016) WEB-DLRip | iTunes скачать торрент бесплатно
  • Мобильник / Cell (2016) HDRip от MegaPeer | iTunes скачать торрент бесплатно
  • Мобильник / Cell (2016) BDRip 720p | iTunes скачать торрент бесплатно


    • Комментарии (0):

      Информация

      Информация

        Посетители, находящиеся в группе Гости, не могут оставлять комментарии в данной новости.

        ↓ Меню



        ↓ Опрос

        А Вы добавили сайт в закладки?
        Да
        Не


        Top 10 за неделю (Фильмы)