.
Авторизация | Регистрация
» » Счастливый брак / A Good Marriage (2014) DVD-9 от NovaLan | P скачать торрент бесплатно




    Счастливый брак / A Good Marriage (2014) DVD-9 от NovaLan | P скачать торрент бесплатно

    Опубликовал: Админ | Дата: 14-08-2016, 05:00 | Просмотров: 88



    Детально о кино
    Русское название: Счастливый брак
    Русское название в мировом прокате: A Good Marriage
    Создали в: 2014
    Категория жанра: Триллер, драма
    Главный режиссер: Питер Эскин

    Актеры
    Джоан Аллен, Энтони ЛаПалья, Кристен Коннолли, Стивен Лэнг, Кара Буоно, Майк О`Мэлли, Тео Стокман, Джейсон Е. Теста

    Сюжет фильма
    Как бы вы поступили, если бы вам открылось, что любимый человек, вероятно, имеет отношение к серии ужасных преступлений? Дарси прожила со своим мужем Бобом более 25 лет, и все это время героиня триллера считала, что у нее счастливый брак, до того дня, когда случайное открытие перевернуло ее сознание. Что, если все эти годы она была охвачена самообманом и на самом деле жила под одной крышей с чудовищем?

    Снималось в: США
    Киностудия: Reno Productions
    Время просмотра: 01: 37: 39
    Перевод текста: Профессиональный многоголосый
    Файл
    Кодек для видео: MPEG-2
    Качество фильма: DVD-9
    Информация о видео: MPEG2, PAL 16: 9 (720x576@1024x576) VBR, 25, 000 кадров/сек
    Информация о звуке: Русский DD 2.0(192 Kbps), Английский, Немецкий DD 5.1 (384 Kbps), Немецкий (DTS, 6 ch)
    Субтитры: Немецкие
    Меню
    DVDInfo

    Title: Локальный диск
    Size: 6.58 Gb ( 6 900 584 KBytes ) - DVD-9
    Enabled regions: 1, 2, 3, 4, 5, 6, 7, 8
    VTS_01 :
    Play Length: 01: 37: 39
    Video: PAL 16: 9 (720x576) VBR, Auto PanScan
    Audio:
    Deutsch (Dolby AC3, 6 ch)
    Deutsch (DTS, 6 ch)
    English (Dolby AC3, 6 ch)
    Russian (Dolby AC3, 2 ch)
    Subtitles:
    Deutsch
    Deutsch
    VTS_02 :
    Play Length: 00: 00: 18
    Video: PAL 16: 9 (720x576) VBR, Auto PanScan
    Audio:
    Not specified (Dolby AC3, 2 ch)
    VTS_03 :
    Play Length: 00: 16: 41
    Video: PAL 16: 9 (720x576) VBR, Auto PanScan
    Audio:
    English (Dolby AC3, 2 ch)
    Subtitles:
    Deutsch
    VTS_04 :
    Play Length: 00: 02: 28+00: 00: 45+00: 02: 20+00: 01: 24
    Video: PAL 16: 9 (720x576) VBR, Auto PanScan
    Audio:
    Deutsch (Dolby AC3, 2 ch)
    VTS_05 :
    Play Length: 00: 01: 49
    Video: PAL 16: 9 (720x576) VBR, Auto PanScan
    Audio:
    Deutsch (Dolby AC3, 6 ch)
    VTS_06 :
    Play Length: 00: 01: 47
    Video: PAL 16: 9 (720x576) VBR, Auto PanScan
    Audio:
    English (Dolby AC3, 2 ch)
    Menu Video:
    PAL 16: 9 (720x576) VBR
    Auto PanScan
    Menu Audio:
    Not specified (Dolby AC3, 2 ch)
    Menu Subtitles:
    Not specified
    Menu Deutsch Language Unit :
    Root Menu
    Subpicture Menu
    Audio Menu
    Chapter (PTT) Menu
    MediaInfo

    Общее
    Полное имя : D: 1АААСчастливый бракVIDEO_TSVTS_01_1.VOB
    Формат : MPEG-PS
    Размер файла : 1024 Мбайт
    Продолжительность : 18 м.
    Режим общего битрейта : Переменный
    Общий поток : 7768 Кбит/сек
    Видео
    Идентификатор : 224 (0xE0)
    Формат : MPEG Video
    Версия формата : Version 2
    Профиль формата : Main@Main
    Параметр BVOP формата : Да
    Параметр матрицы формата : Выборочная
    Параметр GOP формата : M=3, N=12
    Продолжительность : 18 м.
    Вид битрейта : Переменный
    Битрейт : 5771 Кбит/сек
    Максимальный битрейт : 9800 Кбит/сек
    Ширина : 720 пикселей
    Высота : 576 пикселей
    Соотношение сторон : 16: 9
    Частота кадров : 25, 000 кадров/сек
    Стандарт вещания : PAL
    Цветовое пространство : YUV
    Субдискретизация насыщенности : 4: 2: 0
    Битовая глубина : 8 бит
    Тип развёртки : Чересстрочная
    Порядок развёртки : Верхнее поле первое
    Метод сжатия : С потерями
    Бит/(Пиксели*Кадры) : 0.557
    TimeCode_FirstFrame : 00: 00: 00: 00
    TimeCode_Source : Group of pictures t_head
    Размер потока : 761 Мбайт (74%)
    Аудио #1
    Идентификатор : 189 (0xBD)-128 (0x80)
    Формат : AC-3
    Формат/Информация : Audio Coding 3
    Расширение режима : CM (complete main)
    Параметр Endianness формата : Big
    Режим смешивания : DVD-Video
    Продолжительность : 18 м.
    Вид битрейта : Постоянный
    Битрейт : 448 Кбит/сек
    Каналы : 6 каналов
    Расположение каналов : Front: L C R, Side: L R, LFE
    Частота : 48, 0 КГц
    Битовая глубина : 16 бит
    Метод сжатия : С потерями
    Размер потока : 59, 0 Мбайт (6%)
    Аудио #2
    Идентификатор : 189 (0xBD)-130 (0x82)
    Формат : AC-3
    Формат/Информация : Audio Coding 3
    Расширение режима : CM (complete main)
    Параметр Endianness формата : Big
    Режим смешивания : DVD-Video
    Продолжительность : 18 м.
    Вид битрейта : Постоянный
    Битрейт : 448 Кбит/сек
    Каналы : 6 каналов
    Расположение каналов : Front: L C R, Side: L R, LFE
    Частота : 48, 0 КГц
    Битовая глубина : 16 бит
    Метод сжатия : С потерями
    Размер потока : 59, 0 Мбайт (6%)
    Аудио #3
    Идентификатор : 189 (0xBD)-131 (0x83)
    Формат : AC-3
    Формат/Информация : Audio Coding 3
    Расширение режима : CM (complete main)
    Параметр Endianness формата : Big
    Режим смешивания : DVD-Video
    Продолжительность : 18 м.
    Вид битрейта : Постоянный
    Битрейт : 192 Кбит/сек
    Каналы : 2 канала
    Расположение каналов : Front: L R
    Частота : 48, 0 КГц
    Битовая глубина : 16 бит
    Метод сжатия : С потерями
    Размер потока : 25, 3 Мбайт (2%)
    Аудио #4
    Идентификатор : 189 (0xBD)-137 (0x89)
    Формат : DTS
    Формат/Информация : Digital Theater Systems
    Режим : 16
    Параметр Endianness формата : Big
    Режим смешивания : DVD-Video
    Продолжительность : 18 м.
    Вид битрейта : Постоянный
    Битрейт : 755 Кбит/сек
    Каналы : 6 каналов
    Расположение каналов : Front: L C R, Side: L R, LFE
    Частота : 48, 0 КГц
    Битовая глубина : 16 бит
    Метод сжатия : С потерями
    Размер потока : 99, 4 Мбайт (10%)
    Меню

    Скриншоты

    Релиз: 089233
    Залил: YArl

    Онлайн видео Счастливый брак


    Размер скачиваемого торрента: 6.58 GB (7066198016 Bytes)

    Счастливый брак/A Good Marriage (2014) DVD-9 от NovaLan | P
    загрузка...
    Рейтинг →
     (голосов: 1, оценка 4/5, голосовать можно 1 раз )

    Другие торренты по теме:

  • Стивен Кинг - Счастливый брак (2013) MP3 торрент скачать бесплатно
  • Счастливый брак / A Good Marriage скачать через торрент бесплатно
  • Счастливый брак / A Good Marriage (2014) WEB-DLRip | L1 скачать через торрент бесплатно
  • Счастливый брак скачать через торрент бесплатно
  • Счастливый брак / A Good Marriage (2014) BDRip 1080p | P скачать торрент бесплатно
  • Счастливый брак / A Good Marriage (2014) BDRip от Twi7ter | P скачать торрент бесплатно


    • Комментарии (0):

      Информация

      Информация

        Посетители, находящиеся в группе Гости, не могут оставлять комментарии в данной новости.

        ↓ Меню



        ↓ Опрос

        А Вы добавили сайт в закладки?
        Да
        Не


        Top 10 за неделю (Фильмы)