.
Авторизация | Регистрация
Хочешь лучшие торренты? Добавь свой email!
Добавить
» » Белый мавр, или Интимные истории о моих соседях (2012) WEB-DL 720p торрент скачать бесплатно




    Белый мавр, или Интимные истории о моих соседях (2012) WEB-DL 720p торрент скачать бесплатно

    Опубликовал: Админ | Дата: 15-08-2016, 05:00 | Просмотров: 30



    Детально о кино
    Русское название: Белый мавр, или Интимные истории о моих соседях
    Создали в: 2012
    Категория жанра: драма, комедия
    Главный режиссер: Дмитрий Фикс

    Актеры
    Вячеслав Разбегаев, Галина Петрова, Андрей Соколов, Сергей Астахов, Александр Галибин, Екатерина Стриженова, Эвклид Кюрдзидис, Жанна Эппле, Игорь Верник, Олеся Железняк, Анна Якунина, Евгения Морозова, Полина Райкина
    Слоган: Им есть что скрывать

    Сюжет фильма
    Это ироничная, местами откровенно смешная и в тоже время грустная история о буднях так называемого верхнего среднего класса — воспетой в Америке Вуди Алленом, но пока еще весьма малочисленной в нашей стране прослойке состоятельных граждан. Помимо завидного достатка, всех этих погрязших в экзистенциальных сомнениях и банальных адюльтерах бизнесменов, кинозвезд, модных режиссеров, хозяев стоматологических клиник и их прекрасных жен объединяет еще и звонкое пионерское прошлое, преодолеть которое подчас оказывается гораздо сложнее, чем отгрохать особняк на Новой Риге…

    Снималось в: Россия/Мотор Фильм Студия
    Время просмотра: 01: 36: 18
    Перевод текста: Оригинал
    Файл
    Качество фильма: WEB-DL 720p
    Тип видео: MKV
    Информация о видео: AVC, 2944 Kb/s, 1280x696
    Информация о звуке: AC3, 192 Kb/s (2ch)
    Субтитры: нет

    Релиз подготовил:
    MediaInfo:
    Format : Matroska
    Format version : Version 4/Version 2
    File size : 2.11 GiB
    Duration : 1 h 36 min
    Overall bit rate : 3 138 kb/s
    Movie name : Rip by basma4i
    Encoded date : UTC 2016-08-14 08: 13: 17
    Writing application : mkvmerge v9.3.1 (;Mask Machine;) 64bit
    Writing library : libebml v1.3.4 + libmatroska v1.4.5/Lavf56.25.101
    Video
    ID : 1
    Format : AVC
    Format/Info : Advanced Video Codec
    Format profile : High@L4.1
    Format settings, CABAC : Yes
    Format settings, ReFrames : 1 frame
    Codec ID : V_MPEG4/ISO/AVC
    Duration : 1 h 36 min
    Bit rate : 2 944 kb/s
    Width : 1 280 pixels
    Height : 696 pixels
    Display aspect ratio : 1.85: 1
    Frame rate mode : Constant
    Frame rate : 25.000 FPS
    Color space : YUV
    Chroma subsampling : 4: 2: 0
    Bit depth : 8 bits
    Scan type : Progressive
    Bits/(Pixel*Frame) : 0.132
    Stream size : 1.98 GiB (94%)
    Language : Russian
    Default : Yes
    Forced : No
    Audio
    ID : 2
    Format : AC-3
    Format/Info : Audio Coding 3
    Mode extension : CM (complete main)
    Format settings, Endianness : Big
    Codec ID : A_AC3
    Duration : 1 h 36 min
    Bit rate mode : Constant
    Bit rate : 192 kb/s
    Channel(s) : 2 channels
    Channel positions : Front: L R
    Sampling rate : 44.1 kHz
    Frame rate : 28.711 FPS (1536 spf)
    Compression mode : Lossy
    Stream size : 132 MiB (6%)
    Language : Russian
    Default : Yes
    Forced : No
    Скриншоты

    Размер скачиваемого торрента: 2.11 GB (2266424536 Bytes)

    Белый мавр, или Интимные истории о моих соседях (2012) WEB-DL 720p
    загрузка...
    Рейтинг →
     (голосов: 1, оценка 5/5, голосовать можно 1 раз )

    Другие торренты по теме:

  • Белый мавр, или Интимные истории о моих соседях (2012) WEB-DLRip-AVC от Files-x
  • Белый мавр, или Интимные истории о моих соседях (2012) WEB-DLRip от ImperiaFilm
  • Белый мавр, или Интимные истории о моих соседях (2012) WEB-DLRip от ImperiaFilm | КПК


    • Комментарии (0):

      Информация

      Информация

        Посетители, находящиеся в группе Гости, не могут оставлять комментарии в данной новости.

        ↓ Меню



        ↓ Опрос

        А Вы добавили сайт в закладки?
        Да
        Не


        Top 10 за месяц (Фильмы)