.
Авторизация | Регистрация
» » Девушка в парке / The Girl in the Park (2007) BDRip 1080p | P скачать торрент бесплатно




    Девушка в парке / The Girl in the Park (2007) BDRip 1080p | P скачать торрент бесплатно

    Опубликовал: Админ | Дата: 16-08-2016, 05:00 | Просмотров: 40



    Детально о кино
    Русское название: Девушка в парке
    Русское название в мировом прокате: The Girl in the Park
    Создали в: 2007
    Категория жанра: драма
    Главный режиссер: Дэвид Обёрн

    Актеры
    Сигурни Уивер, Кейт Босворт, Алессандро Нивола, Кери Рассел, Дэйзи Тахэн, Дэвид Раш, Патриция Кэлембер, Йен МакУэти, Элиас Котеас, Майкл Паттерсон

    Сюжет фильма

    Главная героиня, Джулия, пережила в прошлом трагедию. 16 лет назад, в городском парке бесследно пропала ее трехлетняя дочь Мэгги. С тех пор Джулия так и не оправилась полностью — она рассталась с мужем, отдалилась от сына и, по сути, потеряла интерес к жизни. Но однажды происходит ее встреча с юной Луизой, и женщины начинают дружить. Девушка поселила в душе Джулии надежду, что когда-нибудь дочь найдется…

    Снималось в: США
    Киностудия: Furst Films, Oak 3 Films, Open Pictures, RGM Entertainment, Rosenbloom Entertainment, Witox
    Время просмотра: 01: 45: 44
    Перевод текста: Профессиональный (многоголосый, закадровый) CP-Digital
    Файл
    Тип видео: Matroska
    Информация о видео: 1920x816 at 25.000 fps, x264@L4.1, ~8679 kbps avg
    Информация о звуке#1: Russian: 48 kHz, AC3 Dolby Digital, 3/2 (L, C, R, l, r) + LFE ch, ~448 kbps avg |Многоголосый закадровый, CP-Digital|
    Информация о звуке#2: English: 48 kHz, AC3 Dolby Digital, 3/2 (L, C, R, l, r) + LFE ch, ~448 kbps avg
    Субтитры: Russian, English, Spanish, Hebrew
    ***Сохранены оригинальные главы как на Blu-ray.
    ***Релиз - whalekilla.
    MI
    Общее
    Уникальный идентификатор : 217299070382578866180079205857156048891 (0xA37A4755D9D90F708249F5AEB17AA7FB)
    Полное имя : The.Girl.in.the.Park.2007.BDRip.(1080p).mkv
    Формат : Matroska
    Версия формата : Version 4/Version 2
    Размер файла : 7, 06 Гбайт
    Продолжительность : 1 ч. 45 м.
    Общий поток : 9561 Кбит/сек
    Название фильма : The Girl in the Park (2007)
    Дата кодирования : UTC 2016-08-15 01: 02: 55
    Программа кодирования : mkvmerge v6.9.1 (;Blue Panther;) 64bit built on Apr 18 2014 18: 23: 38
    Библиотека кодирования : libebml v1.3.0 + libmatroska v1.4.1
    Видео
    Идентификатор : 1
    Формат : AVC
    Формат/Информация : Advanced Video Codec
    Профиль формата : High@L4.1
    Параметр CABAC формата : Да
    Параметр ReFrames формата : 5 кадров
    Идентификатор кодека : V_MPEG4/ISO/AVC
    Продолжительность : 1 ч. 45 м.
    Битрейт : 8679 Кбит/сек
    Ширина : 1920 пикселей
    Высота : 816 пикселей
    Соотношение сторон : 2, 35: 1
    Режим частоты кадров : Постоянный
    Частота кадров : 25, 000 кадров/сек
    Цветовое пространство : YUV
    Субдискретизация насыщенности : 4: 2: 0
    Битовая глубина : 8 бит
    Тип развёртки : Прогрессивная
    Бит/(Пиксели*Кадры) : 0.222
    Размер потока : 6, 26 Гбайт (89%)
    Заголовок : The Girl in the Park (2007)
    Библиотека кодирования : x264 core 130 r2273 b3065e6
    Настройки программы : cabac=1/ref=5/deblock=1: -3: -3/analyse=0x3: 0x133/me=umh/subme=11/psy=1/psy_rd=1.00: 0.10/mixed_ref=1/me_range=32/chroma_me=1/trellis=2/8x8dct=1/cqm=0/deadzone=21, 11/fast_pskip=1/chroma_qp_offset=-3/threads=6/lookahead_threads=1/sliced_threads=0/nr=0/decimate=1/interlaced=0/bluray_compat=0/constrained_intra=0/bframes=3/b_pyramid=2/b_adapt=2/b_bias=0/direct=3/weightb=1/open_gop=0/weightp=2/keyint=250/keyint_min=25/scenecut=40/intra_refresh=0/rc_lookahead=60/rc=2pass/mbtree=1/bitrate=8679/ratetol=1.0/qcomp=0.60/qpmin=0/qpmax=69/qpstep=4/cplxblur=20.0/qblur=0.5/ip_ratio=1.40/aq=1: 1.00
    Язык : English
    Default : Да
    Forced : Нет
    Аудио #1
    Идентификатор : 2
    Формат : AC-3
    Формат/Информация : Audio Coding 3
    Расширение режима : CM (complete main)
    Параметр Endianness формата : Big
    Идентификатор кодека : A_AC3
    Продолжительность : 1 ч. 45 м.
    Вид битрейта : Постоянный
    Битрейт : 448 Кбит/сек
    Каналы : 6 каналов
    Расположение каналов : Front: L C R, Side: L R, LFE
    Частота : 48, 0 КГц
    Метод сжатия : С потерями
    Размер потока : 339 Мбайт (5%)
    Заголовок : AC3, 6 ch, 448 Kbps, MVO
    Язык : Russian
    Default : Да
    Forced : Нет
    Аудио #2
    Идентификатор : 3
    Формат : AC-3
    Формат/Информация : Audio Coding 3
    Расширение режима : CM (complete main)
    Параметр Endianness формата : Big
    Идентификатор кодека : A_AC3
    Продолжительность : 1 ч. 45 м.
    Вид битрейта : Постоянный
    Битрейт : 448 Кбит/сек
    Каналы : 6 каналов
    Расположение каналов : Front: L C R, Side: L R, LFE
    Частота : 48, 0 КГц
    Метод сжатия : С потерями
    Размер потока : 339 Мбайт (5%)
    Заголовок : AC3, 6 ch, 448 Kbps, Original
    Язык : English
    Default : Нет
    Forced : Нет
    Текст #1
    Идентификатор : 4
    Формат : UTF-8
    Идентификатор кодека : S_TEXT/UTF8
    Идентификатор кодека/Информация : UTF-8 Plain Text
    Язык : Russian
    Default : Нет
    Forced : Нет
    Текст #2
    Идентификатор : 5
    Формат : UTF-8
    Идентификатор кодека : S_TEXT/UTF8
    Идентификатор кодека/Информация : UTF-8 Plain Text
    Язык : English
    Default : Нет
    Forced : Нет
    Текст #3
    Идентификатор : 6
    Формат : UTF-8
    Идентификатор кодека : S_TEXT/UTF8
    Идентификатор кодека/Информация : UTF-8 Plain Text
    Язык : Spanish
    Default : Нет
    Forced : Нет
    Текст #4
    Идентификатор : 7
    Формат : UTF-8
    Идентификатор кодека : S_TEXT/UTF8
    Идентификатор кодека/Информация : UTF-8 Plain Text
    Язык : Hebrew
    Default : Нет
    Forced : Нет
    Меню
    00: 00: 00.000 : en: Chapter 01
    00: 03: 50.870 : en: Chapter 02
    00: 07: 29.580 : en: Chapter 03
    00: 19: 19.020 : en: Chapter 04
    00: 26: 38.280 : en: Chapter 05
    00: 35: 58.040 : en: Chapter 06
    00: 44: 22.650 : en: Chapter 07
    00: 59: 03.360 : en: Chapter 08
    01: 08: 36.720 : en: Chapter 09
    01: 18: 51.840 : en: Chapter 10
    01: 29: 21.970 : en: Chapter 11
    01: 42: 18.460 : en: Chapter 12
    Скриншоты


    Онлайн видео Девушка в парке


    Размер скачиваемого торрента: 7.06 GB (7583289379 Bytes)

    Девушка в парке/The Girl in the Park (2007) BDRip 1080p | P
    загрузка...
    Рейтинг →
     (голосов: 1, оценка 4/5, голосовать можно 1 раз )

    Другие торренты по теме:

  • Девушка в парке / The Girl in the Park (2007) HDRip от Scarabey | P торрент скачать бесплатно
  • Голая девушка убита в парке / Ragazza tutta nuda assassinata nel parco (1972) DVDRip | L1 скачать через торрент бесплатно
  • Девушка в парке / The Girl in the Park (2007) HDRip от MegaPeer | P скачать торрент бесплатно


    • Комментарии (0):

      Информация

      Информация

        Посетители, находящиеся в группе Гости, не могут оставлять комментарии в данной новости.

        ↓ Меню



        ↓ Опрос

        А Вы добавили сайт в закладки?
        Да
        Не


        Top 10 за неделю (Фильмы)