.
Авторизация | Регистрация
» » Аддеролловые дневники / The Adderall Diaries (2015) HDRip от Portablius | Line скачать торрент бесплатно




    Аддеролловые дневники / The Adderall Diaries (2015) HDRip от Portablius | Line скачать торрент бесплатно

    Опубликовал: Админ | Дата: 16-08-2016, 05:00 | Просмотров: 104



    Детально о кино
    Русское название: Аддеролловые дневники
    Русское название в мировом прокате: The Adderall Diaries
    Создали в: 2015
    Категория жанра: триллер, драма, криминал
    Главный режиссер: Памела Романовски

    Актеры
    Эмбер Хёрд, Джеймс Франко, Кристиан Слэйтер, Уилмер Вальдеррама, Эд Харрис, Майкл Кристофер, Синтия Никсон, Джим Пэррак

    Сюжет фильма
    Странное судебное разбирательство по делу об убийстве самое малое, что случилось с загнанным в угол прошлым успехом, застоем, злоупотреблением алкоголем, проблемами во взаимоотношениях и комплексом отца писателем Стивеном Эллиотом. Не далее как в 2007 году на судебном разбирательстве по делу программиста Ханса Райзера, обвиняемого в убийстве своей жены, товарищ ответчика Шон Стёрджон косвенно, избегая уточнений, сознался в нескольких убийствах (но все же исключая убийство жены Райзера). Эллиот, взятый на основании отснятого фильма и несущественной связи со Стёрджоном (они состояли в БДСМ-сообществе), создаёт эксцентричную запись судебной процедуры...

    Снималось в: США
    Киностудия: RabbitBandini Productions, Windowseat Films
    Время просмотра: 01: 26: 47
    Перевод текста: Профессиональный (полное дублирование) | чистый звук
    Субтитры: нет
    ПРИМЕЧАНИЕ: ПРИСУТСТВУЕТ РЕКЛАМА!
    Семпл
    Файл
    Кодек для видео: XviD
    Качество фильма: HDRip
    Информация о видео: 720x304 (2.37: 1), 23.976 fps, XviD build 73 ~1058 kbps avg, 0.20 bit/pixel
    Информация о звуке: 48 kHz, MPEG Layer 3, 2 ch, ~128.00 kbps avg
    MediaInfo
    Общее
    Полное имя : The.Adderall.Diaries.2015.HDRip.ot.Portablius.avi
    Формат : AVI
    Формат/Информация : Audio Video Interleave
    Размер файла : 743 Мбайт
    Продолжительность : 1 ч. 26 м.
    Общий поток : 1196 Кбит/сек
    Программа кодирования : VirtualDubMod 1.5.10.3 | www.virtualdub-fr.org || (build 2550/release)
    Библиотека кодирования : VirtualDubMod build 2550/release
    Видео
    Идентификатор : 0
    Формат : MPEG-4 Visual
    Профиль формата : Advanced Simple@L5
    Параметр BVOP формата : 1
    Параметр QPel формата : Нет
    Параметр GMC формата : Без точки перехода
    Параметр матрицы формата : Выборочная
    Идентификатор кодека : XVID
    Идентификатор кодека/Подсказка : XviD
    Продолжительность : 1 ч. 26 м.
    Битрейт : 1059 Кбит/сек
    Ширина : 720 пикселей
    Высота : 304 пикселя
    Соотношение сторон : 2, 35: 1
    Частота кадров : 23, 976 (23976/1000) кадра/сек
    Цветовое пространство : YUV
    Субдискретизация насыщенности : 4: 2: 0
    Битовая глубина : 8 бит
    Тип развёртки : Прогрессивная
    Метод сжатия : С потерями
    Бит/(Пиксели*Кадры) : 0.202
    Размер потока : 657 Мбайт (89%)
    Библиотека кодирования : XviD 73
    Аудио
    Идентификатор : 1
    Формат : MPEG Audio
    Версия формата : Version 1
    Профиль формата : Layer 3
    Идентификатор кодека : 55
    Идентификатор кодека/Подсказка : MP3
    Продолжительность : 1 ч. 26 м.
    Вид битрейта : Постоянный
    Битрейт : 128 Кбит/сек
    Каналы : 2 канала
    Частота : 48, 0 КГц
    Метод сжатия : С потерями
    Размер потока : 79, 5 Мбайт (11%)
    Выравнивание : Соединение по промежуткам
    Продолжительность промежутка : 42 мс. (1, 00 видеокадр)
    Время предзагрузки промежутка : 504 мс.
    Библиотека кодирования : LAME3.99r
    Залил: Evgen Portable

    Онлайн видео Аддеролловые дневники


    Размер скачиваемого торрента: 742.58 MB (778651648 Bytes)


    Аддеролловые дневники/The Adderall Diaries (2015) HDRip от Portablius | Line
    загрузка...
    Рейтинг →
     (голосов: 1, оценка 3/5, голосовать можно 1 раз )

    Другие торренты по теме:

  • Аддеролловые дневники / The Adderall Diaries (2015) BDRip 720p | Line скачать торрент бесплатно
  • Аддеролловые дневники / The Adderall Diaries (2015) BDRip 1080p | Line скачать торрент бесплатно
  • Аддеролловые дневники / The Adderall Diaries (2015) HDRip | iTunes скачать торрент бесплатно
  • Аддеролловые дневники / The Adderall Diaries (2015) BDRip 720p | iTunes скачать торрент бесплатно
  • Аддеролловые дневники / The Adderall Diaries (2015) BDRip 1080p от ExKinoRay | iTunes скачать торрент бесплатно
  • Аддеролловые дневники / The Adderall Diaries (2015) BDRemux 1080p от ExKinoRay | iTunes скачать торрент бесплатно
  • Аддеролловые дневники / The Adderall Diaries (2015) HDRip от MegaPeer | iTunes скачать торрент бесплатно
  • Аддеролловые дневники / The Adderall Diaries (2015) HDRip от Scarabey | iTunes скачать торрент бесплатно


    • Комментарии (0):

      Информация

      Информация

        Посетители, находящиеся в группе Гости, не могут оставлять комментарии в данной новости.

        ↓ Меню



        ↓ Опрос

        А Вы добавили сайт в закладки?
        Да
        Не


        Top 10 за неделю (Фильмы)