.
Авторизация | Регистрация
Хочешь лучшие торренты? Добавь свой email!
Добавить
» » Ниндзя из группы поддержки / Ninja Cheerleaders (2008) HDRip от Portablius | P2 торрент скачать бесплатно




    Ниндзя из группы поддержки / Ninja Cheerleaders (2008) HDRip от Portablius | P2 торрент скачать бесплатно

    Опубликовал: Админ | Дата: 17-08-2016, 05:00 | Просмотров: 78



    Детально о кино
    Русское название: Ниндзя из группы поддержки
    Русское название в мировом прокате: Ninja Cheerleaders
    Создали в: 2008
    Категория жанра: Комедия, боевик
    Главный режиссер: Дэвид Прэсли

    Актеры
    Тришель Каннателла, Мейтленд МакКоннелл, Джордж Такей, Майкл Паре, Омар Дж. Дорси, Макс Перлих, Наташа Чанг, Ларри Поиндекстер, Ричард Давалос

    Сюжет фильма
    Эйприл, Кортни и Моника — три красивых, умных и крутых девчонки-первокурсницы. Они заканчивают свой первый семестр в захолустном муниципальном колледже Лос Ламас Малас. До полуночи они должны успешно сдать экзамены, чтобы их приняли в Ivy League Университет, а также танцевать в группе поддержки на важной игре и спасти своего Сенсея, похищенного бандитами — все для того, чтобы они могли принять участие в общегородском турнире по раздеванию с надеждой выиграть денежный приз колледжа. Все это время им приходится убегать от пронырливых копов, держать своих родителей на расстоянии, иметь дело с тренером-извращенцем, добиться своей цели, улыбаясь, разговаривая или дерясь с множеством странных персонажей…

    Снималось в: США
    Киностудия: Hi-Fidelity Films, Mercurybar Productions, NCS Productions
    Время просмотра: 01: 21: 36
    Перевод текста: Профессиональный, двухголосый (НТВ+)
    Субтитры: Нет
    Семпл
    Файл
    Кодек для видео: XviD
    Качество фильма: HDRip
    Информация о видео: 656x368 (1.78: 1), 23.976 fps, XviD build 73 ~1172 kbps avg, 0.20 bit/pixel
    Информация о звуке: 48 kHz, MPEG Layer 3, 2 ch, ~128.00 kbps avg
    MediaInfo
    Общее
    Полное имя : Ninja.Cheerleaders.2008.HDRip.ot.Portablius.avi
    Формат : AVI
    Формат/Информация : Audio Video Interleave
    Размер файла : 765 Мбайт
    Продолжительность : 1 ч. 21 м.
    Общий поток : 1310 Кбит/сек
    Программа кодирования : VirtualDubMod 1.5.10.3 | www.virtualdub-fr.org || (build 2550/release)
    Библиотека кодирования : VirtualDubMod build 2550/release
    Видео
    Идентификатор : 0
    Формат : MPEG-4 Visual
    Профиль формата : Advanced Simple@L5
    Параметр BVOP формата : 1
    Параметр QPel формата : Нет
    Параметр GMC формата : Без точки перехода
    Параметр матрицы формата : Выборочная
    Идентификатор кодека : XVID
    Идентификатор кодека/Подсказка : XviD
    Продолжительность : 1 ч. 21 м.
    Битрейт : 1173 Кбит/сек
    Ширина : 656 пикселей
    Высота : 368 пикселей
    Соотношение сторон : 16: 9
    Частота кадров : 23, 976 (23976/1000) кадра/сек
    Цветовое пространство : YUV
    Субдискретизация насыщенности : 4: 2: 0
    Битовая глубина : 8 бит
    Тип развёртки : Прогрессивная
    Метод сжатия : С потерями
    Бит/(Пиксели*Кадры) : 0.203
    Размер потока : 685 Мбайт (90%)
    Библиотека кодирования : XviD 73
    Аудио
    Идентификатор : 1
    Формат : MPEG Audio
    Версия формата : Version 1
    Профиль формата : Layer 3
    Идентификатор кодека : 55
    Идентификатор кодека/Подсказка : MP3
    Продолжительность : 1 ч. 21 м.
    Вид битрейта : Постоянный
    Битрейт : 128 Кбит/сек
    Каналы : 2 канала
    Частота : 48, 0 КГц
    Метод сжатия : С потерями
    Размер потока : 74, 7 Мбайт (10%)
    Выравнивание : Соединение по промежуткам
    Продолжительность промежутка : 42 мс. (1, 00 видеокадр)
    Время предзагрузки промежутка : 504 мс.
    Библиотека кодирования : LAME3.99r
    Залил: Evgen Portable

    Онлайн видео Ниндзя из группы поддержки


    Размер скачиваемого торрента: 764.81 MB (801957888 Bytes)


    Ниндзя из группы поддержки/Ninja Cheerleaders (2008) HDRip от Portablius | P2
    загрузка...
    Рейтинг →
     (голосов: 1, оценка 4/5, голосовать можно 1 раз )

    Другие торренты по теме:



      Комментарии (0):

      Информация

      Информация

        Посетители, находящиеся в группе Гости, не могут оставлять комментарии в данной новости.

        ↓ Меню



        ↓ Опрос

        А Вы добавили сайт в закладки?
        Да
        Не


        Top 10 за месяц (Фильмы)