.
Авторизация | Регистрация
» » Земля обетованная / The Land (2016) WEB-DLRip от Portablius | L скачать торрент бесплатно




    Земля обетованная / The Land (2016) WEB-DLRip от Portablius | L скачать торрент бесплатно

    Опубликовал: Админ | Дата: 18-08-2016, 05:00 | Просмотров: 15



    Детально о кино
    Русское название: Земля обетованная
    Русское название в мировом прокате: The Land
    Создали в: 2016
    Категория жанра: драма
    Главный режиссер: Стивен Кейпл мл.

    Актеры
    Хорхе Лендеборг мл., Мойзес Ариас, Рафи Гаврон, Эзри Уокер, Машин Ган Келли, Роберт Хантер, Мелвин Грегг, Кристофер Амитрано

    Сюжет фильма
    История четверых подростков, которые одним летом решают оставить улицы Кливленда, чтобы начать жить своей мечтой — профессиональным скейтбордингом. Однако нарвавшись на местных наркоторговцев, их братству предстоит настоящее испытание, ведь это лето может стать для них последним...

    Снималось в: США
    Киностудия: Low Spark Films, Priority Pictures
    Время просмотра: 01: 41: 42
    Перевод текста: Любительский (многоголосый, закадровый) | Студия Пиратского Дубляжа
    Субтитры: Нет
    ПРИМЕЧАНИЕ: ПРИСУТСТВУЕТ РЕКЛАМА!
    Семпл
    Файл
    Кодек для видео: XviD
    Качество фильма: WEB-DLRip
    Информация о видео: 688x288 (2.39: 1), 23.976 fps, XviD build 73 ~880 kbps avg, 0.19 bit/pixel
    Информация о звуке: 48 kHz, MPEG Layer 3, 2 ch, ~128.00 kbps avg
    MediaInfo
    Общее
    Полное имя : The.Land.2016.WEB-DLRip.ot.Portablius.avi
    Формат : AVI
    Формат/Информация : Audio Video Interleave
    Размер файла : 741 Мбайт
    Продолжительность : 1 ч. 41 м.
    Общий поток : 1018 Кбит/сек
    Программа кодирования : VirtualDubMod 1.5.10.3 | www.virtualdub-fr.org || (build 2550/release)
    Библиотека кодирования : VirtualDubMod build 2550/release
    Видео
    Идентификатор : 0
    Формат : MPEG-4 Visual
    Профиль формата : Advanced Simple@L5
    Параметр BVOP формата : 1
    Параметр QPel формата : Нет
    Параметр GMC формата : Без точки перехода
    Параметр матрицы формата : Выборочная
    Идентификатор кодека : XVID
    Идентификатор кодека/Подсказка : XviD
    Продолжительность : 1 ч. 41 м.
    Битрейт : 881 Кбит/сек
    Ширина : 688 пикселей
    Высота : 288 пикселей
    Соотношение сторон : 2, 40: 1
    Частота кадров : 23, 976 (23976/1000) кадра/сек
    Цветовое пространство : YUV
    Субдискретизация насыщенности : 4: 2: 0
    Битовая глубина : 8 бит
    Тип развёртки : Прогрессивная
    Метод сжатия : С потерями
    Бит/(Пиксели*Кадры) : 0.185
    Размер потока : 641 Мбайт (87%)
    Библиотека кодирования : XviD 73
    Аудио
    Идентификатор : 1
    Формат : MPEG Audio
    Версия формата : Version 1
    Профиль формата : Layer 3
    Идентификатор кодека : 55
    Идентификатор кодека/Подсказка : MP3
    Продолжительность : 1 ч. 41 м.
    Вид битрейта : Постоянный
    Битрейт : 128 Кбит/сек
    Каналы : 2 канала
    Частота : 48, 0 КГц
    Метод сжатия : С потерями
    Размер потока : 93, 1 Мбайт (13%)
    Выравнивание : Соединение по промежуткам
    Продолжительность промежутка : 42 мс. (1, 00 видеокадр)
    Время предзагрузки промежутка : 504 мс.
    Библиотека кодирования : LAME3.99r
    Залил: Evgen Portable

    Онлайн видео Земля обетованная


    Размер скачиваемого торрента: 740.64 MB (776622080 Bytes)


    Земля обетованная/The Land (2016) WEB-DLRip от Portablius | L
    загрузка...
    Рейтинг →
     (голосов: 1, оценка 5/5, голосовать можно 1 раз )

    Другие торренты по теме:

  • Земля обетованная / Promised Land (2012) DVDScr | Sub торрент скачать бесплатно
  • OST - Земля обетованная / Promised Land (2012) MP3 торрент скачать бесплатно
  • Земля обетованная от Иосифа Сталина (2009) SATRip торрент скачать бесплатно
  • Земля обетованная / Promised Land (2012) BDRip | P1 скачать через торрент бесплатно
  • Земля обетованная / Promised Land (2012) BDRip 720p от KinoRay | Р скачать через торрент бесплатно
  • Земля Обетованная / This Land Is Mine (2012) WEB-DLRip 720p скачать через торрент бесплатно
  • Земля обетованная / Promised Land (2012) BDRip-AVC от NovaLan скачать через торрент бесплатно
  • Земля обетованная / Promised Land (2012) BDRip-AVC от Leonardo and Scarabey торрент скачать бесплатно


    • Комментарии (0):

      Информация

      Информация

        Посетители, находящиеся в группе Гости, не могут оставлять комментарии в данной новости.

        ↓ Меню



        ↓ Опрос

        А Вы добавили сайт в закладки?
        Да
        Не


        Top 10 за неделю (Фильмы)