.
Авторизация | Регистрация
» » 33 / The 33 (2015) BDRip 1080p от ExKinoRay | D, P скачать торрент бесплатно




    33 / The 33 (2015) BDRip 1080p от ExKinoRay | D, P скачать торрент бесплатно

    Опубликовал: Админ | Дата: 18-08-2016, 05:00 | Просмотров: 9



    Детально о кино
    Русское название: 33
    Русское название в мировом прокате: The 33
    Создали в: 2015
    Категория жанра: драма, биография, история
    Главный режиссер: Патрисия Ригген

    Актеры
    Антонио Бандерас, Родриго Санторо, Жюльет Бинош, Джеймс Бролин, Лу Даймонд Филлипс, Марио Касас, Джейкоб Варгас, Хуан Пабло Раба, Оскар Нунез, Теноч Уэрта
    О фильме:
    Фильм, основанный на реальных событиях, расскажет о тридцати трех чилийских шахтерах, которые в 2010 году на 69 дней оказались в ловушке под землей.

    Снималось в: США, Чили
    Киностудия: Alcon Entertainment, Dynamo, FABULA, Half Circle, Phoenix Pictures
    Время просмотра: 02: 07: 09
    Перевод текста: Дублированный | SDI Media
    Профессиональный многоголосый (закадровый) | IDEAFILM
    Файл
    Кодек для видео: MPEG-4
    Качество фильма: BDRip 1080p
    Информация о видео: 1920x800, 12.9 Kbit/s, 23.976 fps
    Информация о звуке:
    Информация о звуке #1: 48.0 kHz, AC3, 2.0, 192 Kbps | Дублированный | SDI Media |
    Информация о звуке #2: 48.0 kHz, AC3, 5.1, 384 Kbps | Профессиональный многоголосый (закадровый) | IDEAFILM |
    Информация о звуке #3: 48.0 kHz, DTS, 5.1, 1510 Kbps | Оригинал |
    Субтитры: Английские

    MI
    General
    Unique ID : 198577843948488422212200371759391373293 (0x9564B39BBEA2316098FBCED2181AF7ED)
    Complete name : G: VideoThe.33.2015.D.MVO.BDRip.1080p.ExKinoRay.mkv
    Format : Matroska
    Format version : Version 4/Version 2
    File size : 13.3 GiB
    Duration : 2 h 7 min
    Overall bit rate : 15.0 Mb/s
    Movie name : The.33.2015.D.MVO.BDRip.1080p.ExKinoRay
    Encoded date : UTC 2016-08-17 17: 41: 05
    Writing application : mkvmerge v8.3.0 (;Over the Horizon;) 64bit
    Writing library : libebml v1.3.1 + libmatroska v1.4.2
    Video
    ID : 1
    Format : AVC
    Format/Info : Advanced Video Codec
    Format profile : High@L4.1
    Format settings, CABAC : Yes
    Format settings, ReFrames : 5 frames
    Codec ID : V_MPEG4/ISO/AVC
    Duration : 2 h 7 min
    Bit rate : 12.9 Mb/s
    Width : 1 920 pixels
    Height : 800 pixels
    Display aspect ratio : 2.40: 1
    Frame rate mode : Constant
    Frame rate : 23.976 (24000/1001) FPS
    Color space : YUV
    Chroma subsampling : 4: 2: 0
    Bit depth : 8 bits
    Scan type : Progressive
    Bits/(Pixel*Frame) : 0.350
    Stream size : 11.4 GiB (86%)
    Writing library : x264 core 142 r2431+42 c69a006 tMod 8-bit@4: 2: 0 X86_64
    Encoding settings : cabac=1/ref=5/deblock=1: -3: -3/analyse=0x3: 0x113/me=umh/subme=11/psy=1/fade_compensate=0.00/psy_rd=1.00: 0.05/mixed_ref=1/me_range=48/chroma_me=1/trellis=2/8x8dct=1/cqm=0/deadzone=21, 11/fast_pskip=0/chroma_qp_offset=-2/threads=12/lookahead_threads=2/sliced_threads=0/nr=0/decimate=1/interlaced=0/bluray_compat=0/constrained_intra=0/fgo=0/bframes=8/b_pyramid=2/b_adapt=2/b_bias=0/direct=3/weightb=1/open_gop=0/weightp=2/keyint=250/keyint_min=23/scenecut=40/intra_refresh=0/rc_lookahead=40/rc=crf/mbtree=0/crf=18.6000/qcomp=0.60/qpmin=0: 0: 0/qpmax=69: 69: 69/qpstep=4/vbv_maxrate=50000/vbv_bufsize=45000/crf_max=0.0/nal_hrd=none/filler=0/ip_ratio=1.40/pb_ratio=1.30/aq=3: 1.00/aq-sensitivity=10.00/aq-factor=1.00: 1.00: 1.00/aq2=0/aq3=0
    Language : English
    Default : Yes
    Forced : No
    Color range : Limited
    Matrix coefficients : BT.709
    Audio #1
    ID : 2
    Format : AC-3
    Format/Info : Audio Coding 3
    Mode extension : CM (complete main)
    Format settings, Endianness : Big
    Codec ID : A_AC3
    Duration : 2 h 7 min
    Bit rate mode : Constant
    Bit rate : 192 kb/s
    Channel(s) : 2 channels
    Channel positions : Front: L R
    Sampling rate : 48.0 kHz
    Frame rate : 31.250 FPS (1536 spf)
    Compression mode : Lossy
    Stream size : 175 MiB (1%)
    Title : DUB SDI Media
    Language : Russian
    Default : Yes
    Forced : No
    Audio #2
    ID : 3
    Format : AC-3
    Format/Info : Audio Coding 3
    Mode extension : CM (complete main)
    Format settings, Endianness : Big
    Codec ID : A_AC3
    Duration : 2 h 7 min
    Bit rate mode : Constant
    Bit rate : 384 kb/s
    Channel(s) : 6 channels
    Channel positions : Front: L C R, Side: L R, LFE
    Sampling rate : 48.0 kHz
    Frame rate : 31.250 FPS (1536 spf)
    Compression mode : Lossy
    Stream size : 349 MiB (3%)
    Title : MVO IDEAFILM
    Language : Russian
    Default : No
    Forced : No
    Audio #3
    ID : 4
    Format : DTS
    Format/Info : Digital Theater Systems
    Mode : 16
    Format settings, Endianness : Big
    Codec ID : A_DTS
    Duration : 2 h 7 min
    Bit rate mode : Constant
    Bit rate : 1 509 kb/s
    Channel(s) : 6 channels
    Channel positions : Front: L C R, Side: L R, LFE
    Sampling rate : 48.0 kHz
    Frame rate : 93.750 FPS (512 spf)
    Bit depth : 24 bits
    Compression mode : Lossy
    Stream size : 1.34 GiB (10%)
    Title : Original
    Language : English
    Default : No
    Forced : No
    Text #1
    ID : 5
    Format : UTF-8
    Codec ID : S_TEXT/UTF8
    Codec ID/Info : UTF-8 Plain Text
    Duration : 1 h 53 min
    Bit rate : 47 b/s
    Count of elements : 1452
    Stream size : 39.5 KiB (0%)
    Title : Full
    Language : English
    Default : No
    Forced : No
    Text #2
    ID : 6
    Format : UTF-8
    Codec ID : S_TEXT/UTF8
    Codec ID/Info : UTF-8 Plain Text
    Duration : 1 h 55 min
    Bit rate : 51 b/s
    Count of elements : 1562
    Stream size : 43.2 KiB (0%)
    Title : SDH
    Language : English
    Default : No
    Forced : No
    Menu
    00: 00: 00.000 : en: 00: 00: 00.000
    00: 11: 13.965 : en: 00: 11: 13.965
    00: 21: 10.436 : en: 00: 21: 10.436
    00: 30: 22.362 : en: 00: 30: 22.362
    00: 41: 54.679 : en: 00: 41: 54.679
    00: 51: 01.684 : en: 00: 51: 01.684
    01: 01: 35.317 : en: 01: 01: 35.317
    01: 11: 18.983 : en: 01: 11: 18.983
    01: 24: 02.412 : en: 01: 24: 02.412
    01: 34: 12.689 : en: 01: 34: 12.689
    01: 45: 17.561 : en: 01: 45: 17.561
    01: 56: 48.460 : en: 01: 56: 48.460
    Скриншоты

    Релиз подготовил: Автор релиза:
    Размер скачиваемого торрента: 13.30 GB (14284173343 Bytes)

    33/The 33 (2015) BDRip 1080p от ExKinoRay | D, P
    загрузка...
    Рейтинг →
     (голосов: 1, оценка 5/5, голосовать можно 1 раз )

    Другие торренты по теме:

  • Сказания Земноморья / Gedo Senki - Tales from Earthsea (2006) BDRip-AVC от ExKinoRay торрент скачать бесплатно
  • Жребий / Die (2010) BDRip-AVC от ExKinoRay | P торрент скачать бесплатно
  • Лабиринт / Labyrinth (1986) BDRip (AVC) от ExKinoRay торрент скачать бесплатно
  • Скуби-Ду 2. Монстры на свободе / Scooby Doo 2. Monsters Unleashed (2004) BDRip-AVC от ExKinoRay торрент скачать бесплатно
  • Козерог Один / Capricorn One (1978) BDRip-AVC от ExKinoRay торрент скачать бесплатно
  • Хладнокровный Люк / Cool Hand Luke (1967) BDRip (AVC) от ExKinoRay торрент скачать бесплатно
  • Последний легион / The Last Legion (2007) BDRip-AVC от ExKinoRay торрент скачать бесплатно
  • Шкала агрессии / The Aggression Scale (2012) BDRip-AVC от ExKinoRay | L1 торрент скачать бесплатно


    • Комментарии (0):

      Информация

      Информация

        Посетители, находящиеся в группе Гости, не могут оставлять комментарии в данной новости.

        ↓ Меню



        ↓ Опрос

        А Вы добавили сайт в закладки?
        Да
        Не


        Top 10 за неделю (Фильмы)

        Мой парень – киллер / Mr. Right (2015) WEB-DL 1080p | L скачать торрент бесплатно

        (просмотров: 331)
        Ёлки 5 (2016) WEB-DLRip скачать торрент бесплатно

        (просмотров: 331)
        Разрушение / Demolition (2015) BDRemux 1080p от ExKinoRay | L скачать торрент бесплатно

        (просмотров: 301)
        Экипаж (2016) BDRip от New-Team | D | Лицензия скачать торрент бесплатно
        АНОНСЫ МОИХ РАЗДАЧ
        (просмотров: 301)
        Экипаж (2016) BDRip от New-Team | D | Лицензия скачать торрент бесплатно
        АНОНСЫ МОИХ РАЗДАЧ
        (просмотров: 271)
        Гений / Genius (2016) WEB-DLRip 1080p | Звук TS скачать торрент бесплатно

        (просмотров: 161)
        Кухня (1-5 сезоны: 1-100 серии из 100 + 2 бонуса) / 2012-2015 / РУ / DVDRip, WEB-DLRip скачать торрент бесплатно

        (просмотров: 151)
        Кухня (2015) SATRip скачать торрент бесплатно
        Кухня ? Кухня (2015) SATRip скачать торрент бесплатно
        (просмотров: 141)
        Дуэлянт (2016) WEB-DLRip от Scarabey | iTunes скачать торрент бесплатно

        (просмотров: 131)
        Демон внутри / Вскрытие Джейн Доу / The Autopsy of Jane Doe (2016) WEB-DLRip от Scarabey | P скачать торрент бесплатно
        Мы В КОНТАКТЕ =)
        (просмотров: 111)