.
Авторизация | Регистрация
» » Тень у пирса (1955) DVDRip от New-Team скачать торрент бесплатно




    Тень у пирса (1955) DVDRip от New-Team скачать торрент бесплатно

    Опубликовал: Админ | Дата: 18-08-2016, 05:01 | Просмотров: 61



    Снималось в: СССР
    Создали в: Одесская киностудия
    Категория жанра: шпионский фильм
    Создали в: 1955
    Время просмотра: 01: 22: 25
    Перевод текста: Не требуется
    Субтитры подготовлены: нет
    Оригинальная аудиодорожка: русский
    Главный режиссер: Михаил Винярский

    Актеры

    Олег Жаков, Роза Балашова, Олег Туманов, Лев Фричинский, Екатерина Савинова, Владимир Балашов, Виктор Кулаков, Александр Стародуб...
    Полный список актёров
    Описание:
    В одном из южных портов органами госбезопасности задержан шпион с планом объекта диверсии - плавучего дока, подготовленного к буксировке в отдаленный порт. Майор Людов по ряду признаков догадывается, что в городе действует целая группа врагов. С помощью Ракитиной, библиотекаря плавучего дока, Людову и его помощнику лейтенанту госбезопасности Савельеву удается распутать клубок шпионских связей и предотвратить преступление.



    Источник: DVD5 R5
    Качество фильма видео: DVDRip
    Тип видео видео: AVI
    Информация о видео: 688x512 (4: 3), 25 fps, XviD ~ 1684 kbps avg, 0.191 bit/pixel
    Информация о звуке: 48 kHz, Dolby Digital AC3 2.0, 192 kbps
    Раздача от:
    MediaInfo

    Общее
    Полное имя : Ten.u.pirsa.1955.DVDRip_New-team_by_AVP_Studio.avi
    Формат : AVI
    Формат/Информация : Audio Video Interleave
    Размер файла : 1, 09 Гбайт
    Продолжительность : 1 ч. 22 м.
    Общий поток : 1886 Кбит/сек
    Программа кодирования : VirtualDubMod 1.5.10.3 | www.virtualdub-fr.org || (build 2550/release)
    Библиотека кодирования : VirtualDubMod build 2550/release
    Видео
    Идентификатор : 0
    Формат : MPEG-4 Visual
    Профиль формата : Advanced Simple@L5
    Параметр BVOP формата : 1
    Параметр QPel формата : Нет
    Параметр GMC формата : Без точки перехода
    Параметр матрицы формата : Выборочная
    Идентификатор кодека : XVID
    Идентификатор кодека/Подсказка : XviD
    Продолжительность : 1 ч. 22 м.
    Битрейт : 1684 Кбит/сек
    Ширина : 688 пикселей
    Высота : 512 пикселей
    Соотношение сторон : 4: 3
    Частота кадров : 25, 000 кадров/сек
    Цветовое пространство : YUV
    Субдискретизация насыщенности : 4: 2: 0
    Битовая глубина : 8 бит
    Тип развёртки : Прогрессивная
    Метод сжатия : С потерями
    Бит/(Пиксели*Кадры) : 0.191
    Размер потока : 993 Мбайт (89%)
    Библиотека кодирования : XviD 1.2.1 (UTC 2008-12-04)
    Аудио
    Идентификатор : 1
    Формат : AC-3
    Формат/Информация : Audio Coding 3
    Расширение режима : CM (complete main)
    Параметр Endianness формата : Big
    Идентификатор кодека : 2000
    Продолжительность : 1 ч. 22 м.
    Вид битрейта : Постоянный
    Битрейт : 192 Кбит/сек
    Каналы : 2 канала
    Расположение каналов : Front: L R
    Частота : 48, 0 КГц
    Частота кадров : 31, 250 кадров/сек (1536 spf)
    Метод сжатия : С потерями
    Размер потока : 113 Мбайт (10%)
    Выравнивание : Разделение по промежуткам
    Продолжительность промежутка : 40 мс. (1, 00 видеокадр)
    Время предзагрузки промежутка : 500 мс

    Скриншоты



    Залил: AVPStudio

    Онлайн видео Тень у пирса (1955) DVDRip от New


    Размер скачиваемого торрента: 1.09 GB (1165703168 Bytes)

    Тень у пирса (1955) DVDRip от New-Team
    загрузка...
    Рейтинг →
     (голосов: 1, оценка 5/5, голосовать можно 1 раз )

    Другие торренты по теме:

  • Тень у пирса (1955) DVDRip-AVC от New-Team скачать торрент бесплатно


    • Комментарии (0):

      Информация

      Информация

        Посетители, находящиеся в группе Гости, не могут оставлять комментарии в данной новости.

        ↓ Меню



        ↓ Опрос

        А Вы добавили сайт в закладки?
        Да
        Не


        Top 10 за неделю (Фильмы)