.
Авторизация | Регистрация
Хочешь лучшие торренты? Добавь свой email!
Добавить
» » Белоснежка и Охотник 2 / The Huntsman: Winters War (2016) BDRip 720p от Scarabey | Театральная версия | Лицензия торрент скачать бесплатно




    Белоснежка и Охотник 2 / The Huntsman: Winters War (2016) BDRip 720p от Scarabey | Театральная версия | Лицензия торрент скачать бесплатно

    Опубликовал: Админ | Дата: 19-08-2016, 05:00 | Просмотров: 34



    Создали в: 2016
    Снималось в: США
    Категория жанра: фэнтези, боевик, драма, приключения
    Время просмотра: 01: 53: 57
    Перевод текста: Профессиональный (полное дублирование) Лицензия
    Субтитры подготовлены: нет
    Главный режиссер: Седрик Николя-Троян/Cedric Nicolas-Troyan

    Актеры
    Крис Хемсворт, Шарлиз Терон, Джессика Честейн, Эмили Блант, Ник Фрост, Роб Брайдон, Шеридан Смит, Александра Роуч, Сопе Дирису, Сэм Хэзелдайн

    Описание фильма
    Когда любовь уходит, сердце прекрасной девы обращается в лед. И даже сотни королевств не смогут сдержать поступь ее несметного воинства. Лишь Охотник не ведает страха. Сквозь проклятый лес он идет навстречу своей судьбе.
    Качество фильма видео: BDRip 720p (VietHD)
    Тип видео видео: MKV
    Информация о видео: 1280х536, 23.976 fps, AVC ~5910 kbps avg
    Информация о звуке: 48 kHz, AC3 Dolby Digital, 3/2 (L, C, R, l, r) + LFE ch, ~640 kbps
    Релиз подготовил:
    АНОНСЫ МОИХ РАЗДАЧ!



    МедиаИнфо

    The.Huntsman.Winter;s.War.2016.Theatrical.720p_BDRip_scarabey.org.mkv
    Формат : Matroska
    Версия формата : Version 4/Version 2
    Размер файла : 5, 32 Гбайт
    Продолжительность : 1 ч. 53 м.
    Общий поток : 6683 Кбит/сек
    Дата кодирования : UTC 2016-08-17 08: 10: 55
    Программа кодирования : mkvmerge v6.1.0 (;Old Devil;) built on Mar 4 2013 09: 10: 42
    Библиотека кодирования : libebml v1.3.0 + libmatroska v1.4.0
    Видео
    Идентификатор : 1
    Формат : AVC
    Формат/Информация : Advanced Video Codec
    Профиль формата : High@L4.1
    Параметр CABAC формата : Да
    Параметр ReFrames формата : 12 кадров
    Идентификатор кодека : V_MPEG4/ISO/AVC
    Продолжительность : 1 ч. 53 м.
    Битрейт : 5910 Кбит/сек
    Ширина : 1280 пикселей
    Высота : 536 пикселей
    Соотношение сторон : 2, 40: 1
    Режим частоты кадров : Постоянный
    Частота кадров : 23, 976 (24000/1001) кадра/сек
    Цветовое пространство : YUV
    Субдискретизация насыщенности : 4: 2: 0
    Битовая глубина : 8 бит
    Тип развёртки : Прогрессивная
    Бит/(Пиксели*Кадры) : 0.359
    Размер потока : 4, 70 Гбайт (88%)
    Библиотека кодирования : x264 core 148 r2705kMod 3f5ed56
    Настройки программы : cabac=1/ref=12/deblock=1: -3: -3/analyse=0x3: 0x133/me=umh/subme=10/psy=1/fade_compensate=0.00/psy_rd=1.05: 0.00/mixed_ref=1/me_range=24/chroma_me=1/trellis=2/8x8dct=1/cqm=0/deadzone=21, 11/fast_pskip=0/chroma_qp_offset=-2/threads=12/lookahead_threads=2/sliced_threads=0/nr=0/decimate=0/interlaced=0/bluray_compat=0/constrained_intra=0/fgo=0/bframes=8/b_pyramid=2/b_adapt=2/b_bias=0/direct=3/weightb=1/open_gop=0/weightp=2/keyint=250/keyint_min=23/scenecut=40/intra_refresh=0/rc_lookahead=60/rc=crf/mbtree=0/crf=15.6000/qcomp=0.60/qpmin=0/qpmax=69/qpstep=4/vbv_maxrate=62500/vbv_bufsize=78125/crf_max=0.0/nal_hrd=none/filler=0/ip_ratio=1.30/pb_ratio=1.20/aq=3: 0.75
    Язык : English
    Default : Да
    Forced : Нет
    Цветовой диапазон : Limited
    Коэффициенты матрицы : BT.709
    Аудио
    Идентификатор : 2
    Формат : AC-3
    Формат/Информация : Audio Coding 3
    Расширение режима : CM (complete main)
    Параметр Endianness формата : Big
    Идентификатор кодека : A_AC3
    Продолжительность : 1 ч. 53 м.
    Вид битрейта : Постоянный
    Битрейт : 640 Кбит/сек
    Каналы : 6 каналов
    Расположение каналов : Front: L C R, Side: L R, LFE
    Частота : 48, 0 КГц
    Частота кадров : 31, 250 кадров/сек (1536 spf)
    Метод сжатия : С потерями
    Размер потока : 522 Мбайт (10%)
    Заголовок : Дубляж - Лицензия
    Язык : Russian
    Default : Да
    Forced : Нет
    Меню
    00: 00: 00.000 : en: 00: 00: 00.000
    00: 06: 26.428 : en: 00: 06: 26.428
    00: 09: 26.858 : en: 00: 09: 26.858
    00: 15: 03.194 : en: 00: 15: 03.194
    00: 21: 33.501 : en: 00: 21: 33.501
    00: 26: 52.236 : en: 00: 26: 52.236
    00: 32: 34.744 : en: 00: 32: 34.744
    00: 36: 51.167 : en: 00: 36: 51.167
    00: 42: 17.952 : en: 00: 42: 17.952
    00: 47: 27.261 : en: 00: 47: 27.261
    00: 54: 37.816 : en: 00: 54: 37.816
    00: 59: 26.229 : en: 00: 59: 26.229
    01: 06: 18.975 : en: 01: 06: 18.975
    01: 10: 21.509 : en: 01: 10: 21.509
    01: 17: 45.119 : en: 01: 17: 45.119
    01: 23: 17.492 : en: 01: 23: 17.492
    01: 28: 06.865 : en: 01: 28: 06.865
    01: 33: 28.811 : en: 01: 33: 28.811
    01: 42: 20.760 : en: 01: 42: 20.760
    01: 44: 26.427 : en: 01: 44: 26.427


    Онлайн видео Белоснежка и Охотник 2


    Размер скачиваемого торрента: 5.32 GB (5712295248 Bytes)

    Белоснежка и Охотник 2/The Huntsman: Winters War (2016) BDRip 720p от Scarabey | Театральная версия | Лицензия
    загрузка...
    Рейтинг →
     (голосов: 1, оценка 5/5, голосовать можно 1 раз )

    Другие торренты по теме:

  • Белоснежка и охотник / Snow White and the Huntsman (2012) BDRip 720p | D | Расширенная версия
  • Белоснежка и охотник / Snow White And The Huntsman (2012) BDRip 1080p от GORESEWAGE | Extended Cut
  • Белоснежка и охотник / Snow White And The Huntsman (2012) BDRemux 1080p от GORESEWAGE | Extended Cut скачать через торрент бесплатно
  • Белоснежка и охотник / Snow White And The Huntsman (2012) BDRip 1080p | Extended | D, A
  • Белоснежка и охотник / Snow White and the Huntsman (2012) BDRip 720p от Leonardo and Scarabey | Лицензия | Расширенная версия скачать через торрент бесплатно
  • Белоснежка и охотник / Snow White and the Huntsman
  • Белоснежка и охотник / Snow White and the Huntsman (2012) BDRip-AVC от MediaClub | Extended | D, A скачать через торрент бесплатно
  • Белоснежка и Охотник 2 / The Huntsman: Winter's War (2016)


    • Комментарии (0):

      Информация

      Информация

        Посетители, находящиеся в группе Гости, не могут оставлять комментарии в данной новости.

        ↓ Меню



        ↓ Опрос

        А Вы добавили сайт в закладки?
        Да
        Не


        Top 10 за месяц (Фильмы)