.
Авторизация | Регистрация
» » Падение Лондона / London Has Fallen (2016) BDRip 1080p от ExKinoRay | RUS Transfer | Лицензия скачать торрент бесплатно




    Падение Лондона / London Has Fallen (2016) BDRip 1080p от ExKinoRay | RUS Transfer | Лицензия скачать торрент бесплатно

    Опубликовал: Админ | Дата: 19-08-2016, 05:00 | Просмотров: 25



    Детально о кино
    Русское название: Падение Лондона
    Русское название в мировом прокате: London Has Fallen
    Создали в: 2016
    Категория жанра: Боевик, триллер, криминал
    Главный режиссер: Бабак Наджафи

    Актеры
    Джерард Батлер, Аарон Экхарт, Морган Фримен, Алон Абутбул, Валид Зуэйтер, Адель Беншериф, Мехди Дехби, Шивани Гаи, Мартин Петрушев, Оуэн Дэвис, Майкл Уилдман, Рада Митчелл, Стэйси Шэйн, Пенни Дауни, Кларксон Гай Уильямс, Патрик Кеннеди, Колин Сэлмон, Анджела Бассетт, Дебора Грант, Эндрю Плевин
    О фильме:
    При загадочных обстоятельствах убит британский премьер-министр. На его похороны съезжаются лидеры крупнейших держав мира. Несмотря на запредельные меры безопасности, неизвестные террористы успешно взрывают приглашенных руководителей государств одного за другим вместе с половиной исторического центра Лондона. Однако, для президента США и его личного телохранителя все только начинается...

    Снималось в: США, Великобритания, Болгария
    Киностудия: Gerard Butler Alan Siegel Entertainment, LHF Film, Millennium Films
    Время просмотра: 01: 38: 24
    Перевод текста: Дублированный | Лицензия Blu-Ray RUS Transfer
    Файл
    Кодек для видео: MPEG-4
    Качество фильма: BDRip 1080p
    Информация о видео: 1920x804, 13.1 Mbit/s, 23.976 fps
    Информация о звуке:
    Информация о звуке #01: 48 kHz, AC3, 5.1, 640 Kbps | Дублированный | Лицензия Blu-Ray RUS Transfer |
    Информация о звуке #02: 48 kHz, DTS, 5.1, 1510 kbps | Оригинал |
    Субтитры: Английские

    MI
    General
    Unique ID : 254534429820804660782957567929659681836 (0xBF7D8C4B7E60D562B550D98EB3A3EC2C)
    Complete name : G: VideoLondon.Has.Fallen.2016.D.BDRip.1080p.ExKinoRay.mkv
    Format : Matroska
    Format version : Version 4/Version 2
    File size : 10.5 GiB
    Duration : 1 h 38 min
    Overall bit rate : 15.3 Mb/s
    Movie name : London.Has.Fallen.2016.D.BDRip.1080p.ExKinoRay
    Encoded date : UTC 2016-08-18 21: 52: 38
    Writing application : mkvmerge v8.3.0 (;Over the Horizon;) 64bit
    Writing library : libebml v1.3.1 + libmatroska v1.4.2
    Video
    ID : 1
    Format : AVC
    Format/Info : Advanced Video Codec
    Format profile : High@L4.1
    Format settings, CABAC : Yes
    Format settings, ReFrames : 5 frames
    Codec ID : V_MPEG4/ISO/AVC
    Duration : 1 h 38 min
    Bit rate : 13.1 Mb/s
    Width : 1 920 pixels
    Height : 804 pixels
    Display aspect ratio : 2.40: 1
    Frame rate mode : Constant
    Frame rate : 23.976 (24000/1001) FPS
    Color space : YUV
    Chroma subsampling : 4: 2: 0
    Bit depth : 8 bits
    Scan type : Progressive
    Bits/(Pixel*Frame) : 0.355
    Stream size : 9.06 GiB (86%)
    Writing library : x264 core 148 r2665+53 6629127 t_mod_Custom 8-bit@all X86_64
    Encoding settings : cabac=1/ref=5/deblock=1: -3: -3/analyse=0x3: 0x133/me=umh/subme=11/psy=1/fade_compensate=0.00/psy_rd=1.05: 0.00/mixed_ref=1/me_range=32/chroma_me=1/trellis=2/8x8dct=1/cqm=0/deadzone=21, 11/fast_pskip=0/chroma_qp_offset=-2/threads=16/lookahead_threads=2/sliced_threads=0/nr=0/decimate=0/interlaced=0/bluray_compat=0/constrained_intra=0/fgo=0/bframes=7/b_pyramid=2/b_adapt=2/b_bias=0/direct=3/weightb=1/open_gop=0/weightp=2/keyint=250/keyint_min=23/scenecut=40/intra_refresh=0/rc_lookahead=150/rc=crf/mbtree=0/crf=17.0000/qcomp=0.70/qpmin=0: 0: 0/qpmax=69: 69: 69/qpstep=4/vbv_maxrate=50000/vbv_bufsize=62500/crf_max=0.0/nal_hrd=none/filler=0/ip_ratio=1.30/pb_ratio=1.20/aq=3: 0.70/aq-sensitivity=10.00/aq-factor=1.00: 1.00: 1.00/aq2=0/aq3=0
    Language : English
    Default : Yes
    Forced : No
    Color range : Limited
    Matrix coefficients : BT.709
    Audio #1
    ID : 2
    Format : AC-3
    Format/Info : Audio Coding 3
    Mode extension : CM (complete main)
    Format settings, Endianness : Big
    Codec ID : A_AC3
    Duration : 1 h 38 min
    Bit rate mode : Constant
    Bit rate : 640 kb/s
    Channel(s) : 6 channels
    Channel positions : Front: L C R, Side: L R, LFE
    Sampling rate : 48.0 kHz
    Frame rate : 31.250 FPS (1536 spf)
    Compression mode : Lossy
    Delay relative to video : 1 s 0 ms
    Stream size : 451 MiB (4%)
    Title : DUB RUS Transfer
    Language : Russian
    Default : Yes
    Forced : No
    Audio #2
    ID : 3
    Format : DTS
    Format/Info : Digital Theater Systems
    Mode : 16
    Format settings, Endianness : Big
    Codec ID : A_DTS
    Duration : 1 h 38 min
    Bit rate mode : Constant
    Bit rate : 1 509 kb/s
    Channel(s) : 6 channels
    Channel positions : Front: L C R, Side: L R, LFE
    Sampling rate : 48.0 kHz
    Frame rate : 93.750 FPS (512 spf)
    Bit depth : 24 bits
    Compression mode : Lossy
    Stream size : 1.04 GiB (10%)
    Title : Original
    Language : English
    Default : No
    Forced : No
    Text #1
    ID : 4
    Format : UTF-8
    Codec ID : S_TEXT/UTF8
    Codec ID/Info : UTF-8 Plain Text
    Duration : 1 h 31 min
    Bit rate : 45 b/s
    Count of elements : 1032
    Stream size : 30.7 KiB (0%)
    Title : Full
    Language : English
    Default : No
    Forced : No
    Text #2
    ID : 5
    Format : UTF-8
    Codec ID : S_TEXT/UTF8
    Codec ID/Info : UTF-8 Plain Text
    Duration : 1 h 31 min
    Bit rate : 50 b/s
    Count of elements : 1188
    Stream size : 34.1 KiB (0%)
    Title : SDH
    Language : English
    Default : No
    Forced : No
    Menu
    00: 00: 00.000 : en: Chapter 01
    00: 05: 23.281 : en: Chapter 02
    00: 10: 12.987 : en: Chapter 03
    00: 15: 53.202 : en: Chapter 04
    00: 20: 13.546 : en: Chapter 05
    00: 23: 41.462 : en: Chapter 06
    00: 28: 51.229 : en: Chapter 07
    00: 33: 30.383 : en: Chapter 08
    00: 39: 37.208 : en: Chapter 09
    00: 45: 05.286 : en: Chapter 10
    00: 49: 43.105 : en: Chapter 11
    00: 53: 26.954 : en: Chapter 12
    00: 58: 40.392 : en: Chapter 13
    01: 02: 42.467 : en: Chapter 14
    01: 08: 22.598 : en: Chapter 15
    01: 12: 51.075 : en: Chapter 16
    01: 17: 35.401 : en: Chapter 17
    01: 20: 58.270 : en: Chapter 18
    01: 26: 11.500 : en: Chapter 19
    01: 31: 42.247 : en: Chapter 20
    Скриншоты

    Релиз подготовил: Автор релиза:

    Онлайн видео Падение Лондона


    Размер скачиваемого торрента: 10.55 GB (11323592681 Bytes)

    Падение Лондона/London Has Fallen (2016) BDRip 1080p от ExKinoRay | RUS Transfer | Лицензия
    загрузка...
    Рейтинг →
     (голосов: 1, оценка 5/5, голосовать можно 1 раз )

    Другие торренты по теме:

  • Падение Лондона (2016) скачать торрент бесплатно
  • Падение Лондона / London Has Fallen (2016) WEBRip от Twi7ter | Line скачать торрент бесплатно
  • Падение Лондона / London Has Fallen (2016) WEB-DL 720p | iTunes скачать торрент бесплатно
  • Падение Лондона / London Has Fallen (2016) WEB-DLRip-AVC от Scarabey | iTunes скачать торрент бесплатно
  • Падение Лондона / London Has Fallen (2016) WEB-DLRip от KinoHitHD | КПК | iTunes скачать торрент бесплатно
  • Падение Лондона / London Has Fallen (2016) HDRip от MegaPeer | iTunes скачать торрент бесплатно
  • Падение Лондона / London Has Fallen (2016) BDRip 1080p | iTunes скачать торрент бесплатно
  • Падение Лондона / London Has Fallen (2016) BDRip-AVC | iTunes скачать торрент бесплатно


    • Комментарии (0):

      Информация

      Информация

        Посетители, находящиеся в группе Гости, не могут оставлять комментарии в данной новости.

        ↓ Меню



        ↓ Опрос

        А Вы добавили сайт в закладки?
        Да
        Не


        Top 10 за неделю (Фильмы)