.
Авторизация | Регистрация
» » Урок жизни (1955) SATRip от New-Team скачать торрент бесплатно




    Урок жизни (1955) SATRip от New-Team скачать торрент бесплатно

    Опубликовал: Админ | Дата: 19-08-2016, 05:01 | Просмотров: 25



    Снималось в: СССР
    Создали в: Мосфильм
    Категория жанра: драма
    Создали в: 1955
    Время просмотра: 01: 45: 35
    Перевод текста: Не требуется
    Субтитры подготовлены: нет
    Оригинальная аудиодорожка: русский
    Главный режиссер: Юлий Райзман

    Актеры

    Валентина Калинина, Иван Переверзев, Ольга Аросева, Георгий Куликов, Маргарита Юрьева, Виктор Авдюшко, Ирина Акташева, Федор Шиманский, Евгений Весник, Андрюша Михайлов...
    Полный список актёров
    Описание:
    Наташа бросает учебу в пединституте и едет с Сергеем на стройку. Успехи мужа делают его все более самоуверенным и грубым. Она же чувствует себя одинокой и чужой в собственной семье. Наступает момент, когда Наташа уже не может примириться ни с бесполезностью своей жизни, ни с его вероломством. Она уезжает, завершает учебу в институте и становится учительницей. Но тревожные мысли о Сергее не оставляют ее ни на минуту...



    Источник: DVB
    Качество фильма видео: SATRip
    Тип видео видео: AVI
    Информация о видео: 704x512 (1, 375: 1), 25 fps, XviD ~ 1778 kbps avg, 0.197 bit/pixel
    Информация о звуке: 48 kHz, Dolby Digital AC3 2.0, 192 kbps
    Раздача от:
    MediaInfo

    Общее
    Полное имя : Urok.zhizni.1955.SATRip_New-team_by_AVP_Studio.avi
    Формат : AVI
    Формат/Информация : Audio Video Interleave
    Размер файла : 1, 46 Гбайт
    Продолжительность : 1 ч. 45 м.
    Общий поток : 1979 Кбит/сек
    Программа кодирования : VirtualDubMod 1.5.10.3 | www.virtualdub-fr.org || (build 2550/release)
    Библиотека кодирования : VirtualDubMod build 2550/release
    Видео
    Идентификатор : 0
    Формат : MPEG-4 Visual
    Профиль формата : Advanced Simple@L5
    Параметр BVOP формата : 1
    Параметр QPel формата : Нет
    Параметр GMC формата : Без точки перехода
    Параметр матрицы формата : Выборочная
    Идентификатор кодека : XVID
    Идентификатор кодека/Подсказка : XviD
    Продолжительность : 1 ч. 45 м.
    Битрейт : 1778 Кбит/сек
    Ширина : 704 пикселя
    Высота : 512 пикселей
    Соотношение сторон : 1, 375
    Частота кадров : 25, 000 кадров/сек
    Цветовое пространство : YUV
    Субдискретизация насыщенности : 4: 2: 0
    Битовая глубина : 8 бит
    Тип развёртки : Прогрессивная
    Метод сжатия : С потерями
    Бит/(Пиксели*Кадры) : 0.197
    Размер потока : 1, 31 Гбайт (90%)
    Библиотека кодирования : XviD 1.2.1 (UTC 2008-12-04)
    Аудио
    Идентификатор : 1
    Формат : AC-3
    Формат/Информация : Audio Coding 3
    Расширение режима : CM (complete main)
    Параметр Endianness формата : Big
    Идентификатор кодека : 2000
    Продолжительность : 1 ч. 45 м.
    Вид битрейта : Постоянный
    Битрейт : 192 Кбит/сек
    Каналы : 2 канала
    Расположение каналов : Front: L R
    Частота : 48, 0 КГц
    Частота кадров : 31, 250 кадров/сек (1536 spf)
    Метод сжатия : С потерями
    Размер потока : 145 Мбайт (10%)
    Выравнивание : Разделение по промежуткам
    Продолжительность промежутка : 40 мс. (1, 00 видеокадр)
    Время предзагрузки промежутка : 500 мс

    Скриншоты



    Залил: AVPStudio

    Онлайн видео Урок жизни (1955) SATRip от New


    Размер скачиваемого торрента: 1.46 GB (1567463424 Bytes)

    Урок жизни (1955) SATRip от New-Team
    загрузка...
    Рейтинг →
     (голосов: 1, оценка 3/5, голосовать можно 1 раз )

    Другие торренты по теме:

  • Василий Корж. Уроки жизни (2009) SATRip от AND03AND скачать через торрент бесплатно
  • Урок жизни (1955) SATRip-AVC от New-Team скачать торрент бесплатно


    • Комментарии (0):

      Информация

      Информация

        Посетители, находящиеся в группе Гости, не могут оставлять комментарии в данной новости.

        ↓ Меню



        ↓ Опрос

        А Вы добавили сайт в закладки?
        Да
        Не


        Top 10 за неделю (Фильмы)