.
Авторизация | Регистрация
» » Потерянный в снегах / Идущий по снегу / The Snow Walker (2003) DVDRip | P скачать торрент бесплатно




    Потерянный в снегах / Идущий по снегу / The Snow Walker (2003) DVDRip | P скачать торрент бесплатно

    Опубликовал: Админ | Дата: 21-08-2016, 05:00 | Просмотров: 18



    Детально о кино
    Русское название: Потерянный в снегах/Идущий по снегу
    Русское название в мировом прокате: The Snow Walker
    Создали в: 2003
    Категория жанра: драма, приключения
    Главный режиссер: Чарльз Мартин Смит

    Актеры
    Барри Пеппер, Анабелла Пиугаттук, Джеймс Кромуэлл, Кирстен Уоррен, Джон Грайз, Робин Данн, Малкольм Скотт, Майкл Бубле, Брэд Сивон, Грег Споттисвуд

    Сюжет фильма

    События фильма разворачиваются в 1950-х годах. Тысячи миль арктической пустыни вокруг. Край, который еще не успел разрушить ЧЕЛОВЕК. Чарли Холлидей был рожден для того, чтобы работать в таком месте. Его самолет бороздил воздушное пространство практически в любую погоду, доставляя продовольствие в самые отдаленные уголки Канадской Арктики.
    Он привык рисковать жизнью и за хорошее вознаграждение был готов практически на все. Не удивительно, что даже зная о предстоящем буране он согласился доставить в больницу, страдающую от туберкулеза девушку Иунит из местного племени.
    Однако даже Чарли не был готов к тому, какую участь уготовила ему судьба. Его верный самолет оказавшийся не в силах противостоять разбушевавшейся стихии, терпит катастрофу и отважный пилот вместе со спутницей, практически не говорящей по-английски, оказывается один на один с бесконечной арктической пустыней.
    Теперь эти двое могут надеяться только друг на друга и, чтобы выжить среди снежных просторов им предстоит не только собрать в кулак всю свою волю и мужество, но и наконец-то поверить друг в друга…

    Снималось в: Канада
    Киностудия: British Columbia Film, Canadian Television Fund, Infinity Media, Movie Central Network
    Время просмотра: 01: 45: 19
    Перевод текста: Профессиональный (многоголосый, закадровый)
    Файл
    Тип видео: AVI
    Информация о видео: 704x400 at 23.976 fps, XviD build 73 ~1510 kbps avg
    Информация о звуке: Russian: 48 kHz, AC3 Dolby Digital, 3/2 (L, C, R, l, r) + LFE ch, ~384 kbps |Многоголосый закадровый|
    Субтитры: None
    ***Релиз - tеko.
    MediaInfo
    Общее
    Полное имя : The.Snow.Walker.2003.dvdrip_1.46_teko.avi
    Формат : AVI
    Формат/Информация : Audio Video Interleave
    Размер файла : 1, 46 Гбайт
    Продолжительность : 1 ч. 45 м.
    Общий поток : 1981 Кбит/сек
    Программа кодирования : VirtualDubMod 1.5.10.3 | www.virtualdub-fr.org || (build 2550/release)
    Библиотека кодирования : VirtualDubMod build 2550/release
    Видео
    Идентификатор : 0
    Формат : MPEG-4 Visual
    Профиль формата : Advanced Simple@L5
    Параметр BVOP формата : 2
    Параметр QPel формата : Нет
    Параметр GMC формата : Без точки перехода
    Параметр матрицы формата : Выборочная
    Идентификатор кодека : XVID
    Идентификатор кодека/Подсказка : XviD
    Продолжительность : 1 ч. 45 м.
    Битрейт : 1510 Кбит/сек
    Ширина : 704 пикселя
    Высота : 400 пикселей
    Соотношение сторон : 16: 9
    Частота кадров : 23, 976 кадра/сек
    Цветовое пространство : YUV
    Субдискретизация насыщенности : 4: 2: 0
    Битовая глубина : 8 бит
    Тип развёртки : Прогрессивная
    Метод сжатия : С потерями
    Бит/(Пиксели*Кадры) : 0.224
    Размер потока : 1, 11 Гбайт (76%)
    Библиотека кодирования : XviD 73
    Аудио
    Идентификатор : 1
    Формат : AC-3
    Формат/Информация : Audio Coding 3
    Расширение режима : CM (complete main)
    Параметр Endianness формата : Big
    Идентификатор кодека : 2000
    Продолжительность : 1 ч. 45 м.
    Вид битрейта : Постоянный
    Битрейт : 384 Кбит/сек
    Каналы : 6 каналов
    Расположение каналов : Front: L C R, Side: L R, LFE
    Частота : 48, 0 КГц
    Метод сжатия : С потерями
    Размер потока : 289 Мбайт (19%)
    Выравнивание : Разделение по промежуткам
    Скриншоты



    Онлайн видео Потерянный в снегах


    Размер скачиваемого торрента: 1.46 GB (1564907520 Bytes)

    Потерянный в снегах/Идущий по снегу/The Snow Walker (2003) DVDRip | P
    загрузка...
    Рейтинг →
     (голосов: 1, оценка 4/5, голосовать можно 1 раз )

    Другие торренты по теме:

  • Феи: Потерянное сокровище / Tinker Bell and the Lost Treasure (2009) BDRip 1080p торрент скачать бесплатно
  • Зов крови / Потерянная / Lost Girl (2013) WEB-DLRip | NewStudio торрент скачать бесплатно
  • Потерянный город / The Lost City (2005) BDRip от HQCLUB торрент скачать бесплатно
  • Потерянная / Forsvunnen (2011) DVDRip | L1 торрент скачать бесплатно
  • Вероника. Потерянное счастье (2012) HDTVRip от Files-x торрент скачать бесплатно
  • Вероника. Потерянное счастье (2012) DVB торрент скачать бесплатно
  • Вероника. Потерянное счастье (2012) HDTV 1080i торрент скачать бесплатно
  • Чайна Мьевиль - Вокзал потерянных снов (2013) MP3 торрент скачать бесплатно


    • Комментарии (0):

      Информация

      Информация

        Посетители, находящиеся в группе Гости, не могут оставлять комментарии в данной новости.

        ↓ Меню



        ↓ Опрос

        А Вы добавили сайт в закладки?
        Да
        Не


        Top 10 за неделю (Фильмы)