.
Авторизация | Регистрация
» » Объединенная зона безопасности / Gongdong gyeongbi guyeok JSA (2000) BDRemux 1080p | P2 скачать торрент бесплатно




    Объединенная зона безопасности / Gongdong gyeongbi guyeok JSA (2000) BDRemux 1080p | P2 скачать торрент бесплатно

    Опубликовал: Админ | Дата: 21-08-2016, 05:01 | Просмотров: 39



    Детально о кино
    Русское название: Объединенная зона безопасности
    Русское название в мировом прокате: Gongdong gyeongbi guyeok JSA
    Создали в: 2000
    Категория жанра: драма, триллер, военный
    Главный режиссер: Пак Чхан-ук

    Актеры
    Ли Йон-Э, Ли Бён-Хон, Сон Кан-Хо, Ким Тэ-Ву, Шин Ха-Кьюн, Кристоф Хофрихтер, Херберт Ульрих и др.

    Сюжет фильма
    Договор между СССР и США разделил Корею на два отдельных государства: Северную и Южную. В 1950 году началась Корейская война, в которой было убито и ранено пять миллионов человек — одна шестая всего населения страны. В 1953 году в деревне Панмунджом воюющие стороны подписали Соглашение о прекращении огня. И хотя война все еще продолжалась, вдоль демаркационной линии в радиусе двух километров к югу и северу от Панмунджома, появилась демилитаризованная зона. Внутри ее по кругу диаметром 800 метров была очерчена граница так называемой деревни перемирия.
    Спустя почти полвека в этой пограничной зоне происходит инцидент — с погибшими с северной стороны и пострадавшим с южной. Разобраться в произошедшем приглашают представителя нейтральной стороны.

    Снималось в: Корея Южная
    Время просмотра: 01: 48: 45
    Перевод текста: Профессиональный (двухголосый закадровый)
    Файл
    Качество фильма: BDRemux 1080p
    Информация о видео: AVC/1920x1080/16: 9/24.0fps/15997 kbps/High@L4.1
    Информация о звуке 1: AC3/48.0 KHz/6ch./448kbps/rus/DVO
    Информация о звуке 2: DTS-HD MA/48.0 KHz/6ch./1511kbps/16bit (DTS Core 48.0 KHz/6ch./768kbps/16bit) kor
    Скриншоты

    MediaInfo
    Общее
    Уникальный идентификатор : 221997185070147906884909658724224272614 (0xA7031A45EF6CCBAEBAEA2E934EC908E6)
    Полное имя : E: !_HDtempJoint.Security.Area.2000.BDRemux.1080p.by_vedigo.mkv
    Формат : Matroska
    Версия формата : Version 4/Version 2
    Размер файла : 14, 0 Гбайт
    Продолжительность : 3 ч. 37 м.
    Режим общего битрейта : Переменный
    Общий поток : 9204 Кбит/сек
    Название фильма : Joint.Security.Area.2000.BDRemux.1080p.by_vedigo
    Дата кодирования : UTC 2016-02-17 00: 38: 07
    Программа кодирования : mkvmerge v8.8.0 (;Wind at my back;) 64bit
    Библиотека кодирования : libebml v1.3.3 + libmatroska v1.4.4
    Видео
    Идентификатор : 1
    Формат : AVC
    Формат/Информация : Advanced Video Codec
    Профиль формата : High@L4.1
    Параметр CABAC формата : Да
    Параметр ReFrames формата : 3 кадра
    Идентификатор кодека : V_MPEG4/ISO/AVC
    Продолжительность : 1 ч. 48 м.
    Вид битрейта : Переменный
    Битрейт : 16, 0 Мбит/сек
    Максимальный битрейт : 40, 0 Мбит/сек
    Ширина : 1920 пикселей
    Высота : 1080 пикселей
    Соотношение сторон : 16: 9
    Режим частоты кадров : Постоянный
    Частота кадров : 24, 000 кадра/сек
    Цветовое пространство : YUV
    Субдискретизация насыщенности : 4: 2: 0
    Битовая глубина : 8 бит
    Тип развёртки : Прогрессивная
    Бит/(Пиксели*Кадры) : 0.322
    Размер потока : 12, 2 Гбайт (87%)
    Заголовок : Joint.Security.Area.2000.BDRemux.1080p.by_vedigo
    Библиотека кодирования : x264 core 125 r2208 d9d2288
    Настройки программы : cabac=1/ref=4/deblock=1: -2: -2/analyse=0x3: 0x133/me=umh/subme=10/psy=1/psy_rd=1.00: 0.25/mixed_ref=1/me_range=24/chroma_me=1/trellis=2/8x8dct=1/cqm=0/deadzone=6, 6/fast_pskip=1/chroma_qp_offset=-4/threads=24/lookahead_threads=4/sliced_threads=0/slices=4/nr=0/decimate=0/interlaced=0/bluray_compat=1/constrained_intra=0/bframes=3/b_pyramid=1/b_adapt=2/b_bias=0/direct=3/weightb=1/open_gop=1/weightp=1/keyint=24/keyint_min=1/scenecut=80/intra_refresh=0/rc_lookahead=24/rc=2pass/mbtree=1/bitrate=16000/ratetol=1.0/qcomp=0.80/qpmin=0/qpmax=69/qpstep=4/cplxblur=20.0/qblur=0.5/vbv_maxrate=40000/vbv_bufsize=30000/nal_hrd=vbr/ip_ratio=1.10/aq=1: 0.50
    Default : Да
    Forced : Нет
    Цветовой диапазон : Limited
    Основные цвета : BT.709
    Характеристики трансфера : BT.709
    Коэффициенты матрицы : BT.709
    Аудио #1
    Идентификатор : 2
    Формат : AC-3
    Формат/Информация : Audio Coding 3
    Расширение режима : CM (complete main)
    Параметр Endianness формата : Big
    Идентификатор кодека : A_AC3
    Продолжительность : 3 ч. 37 м.
    Вид битрейта : Постоянный
    Битрейт : 448 Кбит/сек
    Каналы : 6 каналов
    Расположение каналов : Front: L C R, Side: L R, LFE
    Частота : 48, 0 КГц
    Частота кадров : 31, 250 кадров/сек (1536 spf)
    Метод сжатия : С потерями
    Размер потока : 697 Мбайт (5%)
    Заголовок : DVO
    Язык : Russian
    Default : Да
    Forced : Нет
    Аудио #2
    Идентификатор : 3
    Формат : DTS
    Формат/Информация : Digital Theater Systems
    Профиль формата : MA/Core
    Режим : 16
    Параметр Endianness формата : Big
    Идентификатор кодека : A_DTS
    Продолжительность : 1 ч. 48 м.
    Вид битрейта : Переменный/Постоянный
    Битрейт : 1536 Кбит/сек/768 Кбит/сек
    Каналы : 6 каналов
    Расположение каналов : Front: L C R, Side: L R, LFE
    Частота : 48, 0 КГц
    Частота кадров : 93, 750 кадра/сек (512 spf)
    Битовая глубина : 16 бит
    Метод сжатия : Без потерь/Lossy
    Размер потока : 1, 15 Гбайт (8%)
    Заголовок : original
    Язык : Korean
    Default : Нет
    Forced : Нет
    Текст #1
    Идентификатор : 4
    Формат : UTF-8
    Идентификатор кодека : S_TEXT/UTF8
    Идентификатор кодека/Информация : UTF-8 Plain Text
    Продолжительность : 1 ч. 46 м.
    Битрейт : 59 бит/сек
    Count of elements : 749
    Размер потока : 46, 4 Кбайт (0%)
    Заголовок : subtitle rus
    Язык : Russian
    Default : Нет
    Forced : Нет
    Текст #2
    Идентификатор : 5
    Формат : UTF-8
    Идентификатор кодека : S_TEXT/UTF8
    Идентификатор кодека/Информация : UTF-8 Plain Text
    Продолжительность : 1 ч. 46 м.
    Битрейт : 27 бит/сек
    Count of elements : 720
    Размер потока : 21, 4 Кбайт (0%)
    Заголовок : subtitle eng
    Язык : English
    Default : Нет
    Forced : Нет
    Текст #3
    Идентификатор : 6
    Формат : UTF-8
    Идентификатор кодека : S_TEXT/UTF8
    Идентификатор кодека/Информация : UTF-8 Plain Text
    Продолжительность : 1 ч. 48 м.
    Битрейт : 37 бит/сек
    Count of elements : 751
    Размер потока : 29, 9 Кбайт (0%)
    Заголовок : subtitle ger
    Язык : German
    Default : Нет
    Forced : Нет


    Онлайн видео Объединенная зона безопасности


    Размер скачиваемого торрента: 13.98 GB (15015684061 Bytes)

    Объединенная зона безопасности/Gongdong gyeongbi guyeok JSA (2000) BDRemux 1080p | P2
    загрузка...
    Рейтинг →
     (голосов: 1, оценка 5/5, голосовать можно 1 раз )

    Другие торренты по теме:

  • Объединенная зона безопасности / Gongdong gyeongbi guyeok J.S.A. (2000) BDRip 720p скачать торрент бесплатно
  • Объединенная зона безопасности / Gongdong gyeongbi guyeok JSA (2000) HDRip от Scarabey | P скачать торрент бесплатно
  • Объединенная зона безопасности / Gongdong gyeongbi guyeok JSA (2000) BDRip от HQ-ViDEO скачать торрент бесплатно


    • Комментарии (0):

      Информация

      Информация

        Посетители, находящиеся в группе Гости, не могут оставлять комментарии в данной новости.

        ↓ Меню



        ↓ Опрос

        А Вы добавили сайт в закладки?
        Да
        Не


        Top 10 за неделю (Фильмы)