.
Авторизация | Регистрация
» » Кровь и шоколад / Blood and Chocolate (2006) BDRip 720p | D скачать торрент бесплатно




    Кровь и шоколад / Blood and Chocolate (2006) BDRip 720p | D скачать торрент бесплатно

    Опубликовал: Админ | Дата: 22-08-2016, 05:00 | Просмотров: 52



    Детально о кино
    Русское название: Кровь и шоколад
    Русское название в мировом прокате: Blood and Chocolate
    Создали в: 2006
    Категория жанра: фэнтези, драма, мелодрама
    Главный режиссер: Катя фон Гарнье

    Актеры
    Агнес Брукнер, Хью Дэнси, Оливье Мартинес, Катя Риман, Брайан Дик, Крис Гир, Том Харпер, Джон Керр, Джек Уилсон, Виталий Урсу

    Сюжет фильма

    Современная девушка-оборотень, из тех, что предпочитают кровь шоколаду, влюбляется в смертного мужчину. Ее любовь заранее обречена на провал, ведь она не может быть до конца откровенной со своим возлюбленным, и вынуждена вести двойную жизнь. Но рано или поздно все тайное становится явным… И тогда ей придется выбирать между семейным счастьем и своей второй сущностью.

    Снималось в: Великобритания, Германия, Румыния, США
    Киностудия: Berrick Filmproduktion, Blood Chocolate Productions Ltd., Daniel Bobker Productions, Lakeshore Entertainment, Metro-Goldwyn-Mayer (MGM)
    Время просмотра: 01: 38: 19
    Перевод текста: дублированный
    Файл
    Кодек для видео: H.264
    Качество фильма: BDRip 720p
    Информация о видео: MPEG-4/AVC, 1280x544 (2.35: 1), 23.976 fps ~ 5730 Kbps
    Информация о звуке:
    AC3, 48 KHz 6 ch ~ 384 Kb/s (русский)
    AC3, 48 KHz 6 ch ~ 640 Kb/s (английский)
    Субтитры: русские, английские (отдельно)
    MI:

    Общее
    Уникальный идентификатор : 211899042712184605285308684613720981487 (0x9F6A456A63F1095BB32188933EEBBFEF)
    Полное имя : Q: TorFBlood.And.Chocolate.2007.720p.mkv
    Формат : Matroska
    Версия формата : Version 2
    Размер файла : 4, 64 Гбайт
    Продолжительность : 1 ч. 38 м.
    Общий поток : 6755 Кбит/сек
    Дата кодирования : UTC 2016-08-21 07: 32: 11
    Программа кодирования : mkvmerge v5.4.0 (;Piper;) built on Mar 10 2012 13: 34: 39
    Библиотека кодирования : libebml v1.2.3 + libmatroska v1.3.0
    Видео
    Идентификатор : 1
    Формат : AVC
    Формат/Информация : Advanced Video Codec
    Профиль формата : Main@L5.1
    Параметр CABAC формата : Да
    Параметр ReFrames формата : 8 кадров
    Идентификатор кодека : V_MPEG4/ISO/AVC
    Продолжительность : 1 ч. 38 м.
    Битрейт : 5729 Кбит/сек
    Ширина : 1280 пикселей
    Высота : 544 пикселя
    Соотношение сторон : 2, 35: 1
    Частота кадров : 23, 976 кадра/сек
    Цветовое пространство : YUV
    Субдискретизация насыщенности : 4: 2: 0
    Битовая глубина : 8 бит
    Тип развёртки : Прогрессивная
    Бит/(Пиксели*Кадры) : 0.343
    Размер потока : 3, 84 Гбайт (83%)
    Библиотека кодирования : x264 core 55 svn-656
    Настройки программы : cabac=1/ref=5/deblock=1: -3: -2/analyse=0x1: 0/me=umh/subme=7/brdo=1/mixed_ref=1/me_range=16/chroma_me=1/trellis=1/8x8dct=0/cqm=0 /
    deadzone=21, 11/chroma_qp_offset=0/threads=2/nr=0/decimate=1/mbaff=0/bframes=3/b_pyramid=1/b_adapt=1/b_bias=0/direct=1/wpredb=1/bime=1/keyint=250/keyint_min=25 /
    scenecut=40(pre)/rc=2pass/bitrate=5729/ratetol=1.0/rceq=;blurCplx^(1-qComp);/qcomp=0.60/qpmin=10/qpmax=51/qpstep=4/cplxblur=20.0/qblur=0.5/ip_ratio=1.40/pb_ratio=1.30
    Язык : English
    Default : Да
    Forced : Нет
    Аудио #1
    Идентификатор : 2
    Формат : AC-3
    Формат/Информация : Audio Coding 3
    Расширение режима : CM (complete main)
    Идентификатор кодека : A_AC3
    Продолжительность : 1 ч. 38 м.
    Вид битрейта : Постоянный
    Битрейт : 384 Кбит/сек
    Каналы : 6 каналов
    Расположение каналов : Front: L C R, Side: L R, LFE
    Частота : 48, 0 КГц
    Битовая глубина : 16 бит
    Метод сжатия : С потерями
    Размер потока : 270 Мбайт (6%)
    Заголовок : P
    Язык : Russian
    Default : Да
    Forced : Нет
    Аудио #2
    Идентификатор : 3
    Формат : AC-3
    Формат/Информация : Audio Coding 3
    Расширение режима : CM (complete main)
    Идентификатор кодека : A_AC3
    Продолжительность : 1 ч. 38 м.
    Вид битрейта : Постоянный
    Битрейт : 640 Кбит/сек
    Каналы : 6 каналов
    Расположение каналов : Front: L C R, Side: L R, LFE
    Частота : 48, 0 КГц
    Битовая глубина : 16 бит
    Метод сжатия : С потерями
    Размер потока : 450 Мбайт (9%)
    Заголовок : EN
    Язык : English
    Default : Нет
    Forced : Нет

    Семпл
    Скриншоты


    Онлайн видео Кровь и шоколад


    Размер скачиваемого торрента: 4.64 GB (4981336700 Bytes)

    Кровь и шоколад/Blood and Chocolate (2006) BDRip 720p | D
    загрузка...
    Рейтинг →
     (голосов: 1, оценка 5/5, голосовать можно 1 раз )

    Другие торренты по теме:

  • Кровь и шоколад / Blood and Chocolate (2007) BDRip от Rulya74 торрент скачать бесплатно
  • Кровь и шоколад / Blood and Chocolate (2007) BDRip-AVC от NovaLan скачать торрент бесплатно


    • Комментарии (0):

      Информация

      Информация

        Посетители, находящиеся в группе Гости, не могут оставлять комментарии в данной новости.

        ↓ Меню



        ↓ Опрос

        А Вы добавили сайт в закладки?
        Да
        Не


        Top 10 за неделю (Фильмы)