.
Авторизация | Регистрация
Хочешь лучшие торренты? Добавь свой email!
Добавить
» » Мэгги / Зараженная / Maggie (2015) DVDRip от Portablius | Лицензия торрент скачать бесплатно




    Мэгги / Зараженная / Maggie (2015) DVDRip от Portablius | Лицензия торрент скачать бесплатно

    Опубликовал: Админ | Дата: 22-08-2016, 05:00 | Просмотров: 33



    Детально о кино
    Русское название: Мэгги/Зараженная
    Русское название в мировом прокате: Maggie
    Создали в: 2015
    Категория жанра: триллер, ужасы
    Главный режиссер: Генри Хобсон

    Актеры
    Арнольд Шварценеггер, Эбигейл Бреслин, Джоэли Ричардсон, Лора Кайюэтт, Эми Брассетт, Денис Уильямсон, Дж.Д. Эвермор, Рэден Грир, Эйден Флауэрс, Тейлор Мерфи

    Сюжет фильма
    Девочка-подросток Мэгги заражается болезнью, медленно превращающей инфицированных в зомби. Правительство организует карантин для инфицированных, где их помещают в изоляцию. Её любящий отец не готов помещать её в карантин, и она живёт вместе с ним.

    Снималось в: США, Швейцария
    Киностудия: Gold Star Films, Grindstone Entertainment Group, Lionsgate, Lotus Entertainment (II), Matt Baer Films, Silver Reel, Sly Predator
    Время просмотра: 01: 29: 49
    Перевод текста: Профессиональный (многоголосый, закадровый) Лицензия
    Субтитры: Нет
    Семпл
    Файл
    Кодек для видео: XviD
    Качество фильма: DVDRip
    Информация о видео: 688x384 (1.79: 1), 25 fps, XviD build 73 ~1845 kbps avg, 0.28 bit/pixel
    Информация о звуке: 48 kHz, AC3 Dolby Digital, 3/2 (L, C, R, l, r) + LFE ch, ~448 kbps
    MediaInfo
    Общее
    Полное имя : Zarazhennaya.2015.DVDRip.ot.Portablius.avi
    Формат : AVI
    Формат/Информация : Audio Video Interleave
    Размер файла : 1, 44 Гбайт
    Продолжительность : 1 ч. 29 м.
    Общий поток : 2303 Кбит/сек
    Программа кодирования : VirtualDubMod 1.5.10.3 | www.virtualdub-fr.org || (build 2550/release)
    Библиотека кодирования : VirtualDubMod build 2550/release
    Видео
    Идентификатор : 0
    Формат : MPEG-4 Visual
    Профиль формата : Advanced Simple@L5
    Параметр BVOP формата : 1
    Параметр QPel формата : Нет
    Параметр GMC формата : Без точки перехода
    Параметр матрицы формата : Выборочная
    Идентификатор кодека : XVID
    Идентификатор кодека/Подсказка : XviD
    Продолжительность : 1 ч. 29 м.
    Битрейт : 1845 Кбит/сек
    Ширина : 688 пикселей
    Высота : 384 пикселя
    Соотношение сторон : 16: 9
    Частота кадров : 25, 000 кадров/сек
    Цветовое пространство : YUV
    Субдискретизация насыщенности : 4: 2: 0
    Битовая глубина : 8 бит
    Тип развёртки : Прогрессивная
    Метод сжатия : С потерями
    Бит/(Пиксели*Кадры) : 0.279
    Размер потока : 1, 16 Гбайт (80%)
    Библиотека кодирования : XviD 73
    Аудио
    Идентификатор : 1
    Формат : AC-3
    Формат/Информация : Audio Coding 3
    Расширение режима : CM (complete main)
    Параметр Endianness формата : Big
    Идентификатор кодека : 2000
    Продолжительность : 1 ч. 29 м.
    Вид битрейта : Постоянный
    Битрейт : 448 Кбит/сек
    Каналы : 6 каналов
    Расположение каналов : Front: L C R, Side: L R, LFE
    Частота : 48, 0 КГц
    Частота кадров : 31, 250 кадров/сек (1536 spf)
    Метод сжатия : С потерями
    Размер потока : 288 Мбайт (19%)
    Выравнивание : Разделение по промежуткам
    Продолжительность промежутка : 40 мс. (1, 00 видеокадр)
    Время предзагрузки промежутка : 500 мс.

    Скриншоты

    Залил: Evgen Portable
    Размер скачиваемого торрента: 1.44 GB (1551269888 Bytes)

    Мэгги/Зараженная/Maggie (2015) DVDRip от Portablius | Лицензия
    загрузка...
    Рейтинг →
     (голосов: 1, оценка 5/5, голосовать можно 1 раз )

    Другие торренты по теме:

  • Мэгги / Зараженная / Maggie (2015) DVDRip от Portablius | Лицензия
  • Зараженная (Мэгги) / Maggie / 2015 / ПМ / BDRip (720p)


    • Комментарии (0):

      Информация

      Информация

        Посетители, находящиеся в группе Гости, не могут оставлять комментарии в данной новости.

        ↓ Меню



        ↓ Опрос

        А Вы добавили сайт в закладки?
        Да
        Не


        Top 10 за месяц (Фильмы)