.
Авторизация | Регистрация
» » Фунт плоти / Pound Of Flesh (2015) HDRip-AVC | L2 скачать торрент бесплатно




    Фунт плоти / Pound Of Flesh (2015) HDRip-AVC | L2 скачать торрент бесплатно

    Опубликовал: Админ | Дата: 23-08-2016, 05:00 | Просмотров: 99



    Создали в: Канада/ACE Film Company, ACE Studios, Odyssey Media
    Категория жанра: боевик, криминал
    Главный режиссер: Эрни Барбараш
    Продюсер: Жан-Клод Ван Дамм, Джон Ралстон, Аки Алеонг, Шарлотта Питерс, Даррен Шалави, Брахим Ачаббаке, Джейсон Дж. Тобин, Кевин Ли, Темур Мамисашвили, Филипп Жоли

    Описание фильма

    Однажды ночью главный герой спасает женщину, но на следующее утро просыпается в номере отеля и обнаруживает, что лежит в ванной весь в крови и без одной почки…

    Время просмотра: 01: 49: 44
    Перевод текста: Двухголосый закадровый, любительский
    Субтитры: Отсутствуют
    Качество фильма: HDRip-AVC
    Информация о видео: AVC, 1024x576 (16: 9), 23.976 fps, 2 611 Kbps (0.185 bit/pixel)
    Информация о звуке: AC-3, 48.0 KHz, 2 ch, 384 Kbps
    MediaInfo
    Формат : Matroska
    Версия формата : Version 2
    Размер файла : 2, 18 Гбайт
    Продолжительность : 1 ч. 44 м.
    Общий поток : 2994 Кбит/сек
    Название фильма : Фунт плоти. (Tonik)
    Дата кодирования : UTC 2016-08-22 11: 00: 02
    Программа кодирования : mkvmerge v7.8.0 (;River Man;) 32bit built on Apr 3 2015 12: 11: 22
    Библиотека кодирования : libebml v1.3.1 + libmatroska v1.4.2
    Видео
    Идентификатор : 1
    Формат : AVC
    Формат/Информация : Advanced Video Codec
    Профиль формата : High@L4.1
    Параметр CABAC формата : Да
    Параметр ReFrames формата : 9 кадров
    Идентификатор кодека : V_MPEG4/ISO/AVC
    Продолжительность : 1 ч. 44 м.
    Битрейт : 2611 Кбит/сек
    Ширина : 1024 пикселя
    Высота : 576 пикселей
    Соотношение сторон : 16: 9
    Режим частоты кадров : Постоянный
    Частота кадров : 23, 976 кадра/сек
    Цветовое пространство : YUV
    Субдискретизация насыщенности : 4: 2: 0
    Битовая глубина : 8 бит
    Тип развёртки : Прогрессивная
    Бит/(Пиксели*Кадры) : 0.185
    Размер потока : 1, 86 Гбайт (85%)
    Библиотека кодирования : x264 core 146 r2538 121396c
    Настройки программы : cabac=1/ref=9/deblock=1: -2: -2/analyse=0x3: 0x133/me=umh/subme=10/psy=1/psy_rd=1.00: 0.15/mixed_ref=1/me_range=32/chroma_me=1/trellis=2/8x8dct=1/cqm=0/deadzone=21, 11/fast_pskip=0/chroma_qp_offset=-3/threads=12/lookahead_threads=2/sliced_threads=0/nr=0/decimate=0/interlaced=0/bluray_compat=0/constrained_intra=0/bframes=8/b_pyramid=2/b_adapt=2/b_bias=0/direct=3/weightb=1/open_gop=0/weightp=2/keyint=240/keyint_min=23/scenecut=40/intra_refresh=0/rc_lookahead=40/rc=2pass/mbtree=0/bitrate=2611/ratetol=1.0/qcomp=0.60/qpmin=0/qpmax=69/qpstep=4/cplxblur=20.0/qblur=0.5/vbv_maxrate=50000/vbv_bufsize=62500/nal_hrd=none/filler=0/ip_ratio=1.40/pb_ratio=1.30/aq=1: 0.80
    Default : Да
    Forced : Нет
    Аудио
    Идентификатор : 2
    Формат : AC-3
    Формат/Информация : Audio Coding 3
    Расширение режима : CM (complete main)
    Параметр Endianness формата : Big
    Идентификатор кодека : A_AC3
    Продолжительность : 1 ч. 44 м.
    Вид битрейта : Постоянный
    Битрейт : 384 Кбит/сек
    Каналы : 2 канала
    Расположение каналов : Front: L R
    Частота : 48, 0 КГц
    Битовая глубина : 16 бит
    Метод сжатия : С потерями
    Размер потока : 287 Мбайт (13%)
    Заголовок : -
    Язык : Russian
    Default : Да
    Forced : Нет
    /code

    Скриншоты:


    Онлайн видео Фунт плоти


    Размер скачиваемого торрента: 2.18 GB (2344513723 Bytes)

    Фунт плоти/Pound Of Flesh (2015) HDRip-AVC | L2
    загрузка...
    Рейтинг →
     (голосов: 1, оценка 3/5, голосовать можно 1 раз )

    Другие торренты по теме:

  • Фунт плоти / Pound Of Flesh (2015) WEB-DLRip | L1 скачать торрент бесплатно
  • Фунт плоти / Pound Of Flesh (2015) WEB-DL 720p | L1 скачать торрент бесплатно
  • Фунт плоти / Pound Of Flesh (2015) WEBDLRip-AVC | L1 скачать торрент бесплатно
  • Фунт плоти / Pound Of Flesh (2015) WEB-DLRip от torrentfilm | L1 скачать торрент бесплатно
  • Фунт плоти / Pound Of Flesh (2015) WEB-DLRip | L1 скачать торрент бесплатно
  • Фунт плоти / Pound Of Flesh (2015) BDRip 720p | L2 скачать торрент бесплатно
  • Фунт плоти / Pound Of Flesh (2015) HDRip | L2 скачать торрент бесплатно
  • Фунт плоти / Pound Of Flesh (2015) HDRip от Portablius | L2 скачать торрент бесплатно


    • Комментарии (0):

      Информация

      Информация

        Посетители, находящиеся в группе Гости, не могут оставлять комментарии в данной новости.

        ↓ Меню



        ↓ Опрос

        А Вы добавили сайт в закладки?
        Да
        Не


        Top 10 за неделю (Фильмы)