.
Авторизация | Регистрация
» » Соседи. На тропе войны 2 / Neighbors 2: Sorority Rising (2016) BDRip 1080p от ExKinoRay | iTunes скачать торрент бесплатно




    Соседи. На тропе войны 2 / Neighbors 2: Sorority Rising (2016) BDRip 1080p от ExKinoRay | iTunes скачать торрент бесплатно

    Опубликовал: Админ | Дата: 24-08-2016, 05:00 | Просмотров: 31



    Детально о кино
    Русское название: Соседи. На тропе войны 2
    Русское название в мировом прокате: Neighbors 2: Sorority Rising
    Создали в: 2016
    Категория жанра: Комедия
    Главный режиссер: Николас Столлер

    Актеры

    Сет Роген, Зак Эфрон, Роуз Бирн, Хлоя Грейс Морец, Айк Баринхолц, Кирси Клемонс, Дэйв Франко, Джеррод
    Кармайкл, Кристофер Минц-Плассе, Бини Фелдштейн
    О фильме:
    На этот раз в дом по соседству с Маком и Келли въезжает университетский женский клуб. Чтобы разобраться с новыми соседями, которые не дают им покоя, Мак и Келли решают обратиться за помощью к их бывшему врагу — Тедди Сандерсу...

    Снималось в: США
    Киностудия: Good Universe, Point Grey Pictures
    Время просмотра: 01: 32: 23
    Перевод текста: Дублированный | iTunes
    Файл
    Кодек для видео: MPEG-4
    Качество фильма: BDRip 1080p
    Информация о видео: 1920x800, 15.8 Mbit/s, 23.976 fps
    Информация о звуке:
    Информация о звуке #01: 48 kHz, AC3, 5.1, 384 Kbps | Дублированный, iTunes |
    Информация о звуке #02: 48 kHz, DTS, 5.1, 1510 kbps | Оригинал |
    Субтитры: Английские

    MI
    General
    Unique ID : 253124637015350861856564848409306067073 (0xBE6E0824A27CB571B8D315D52121F081)
    Complete name : G: VideoNeighbors.2.Sorority.Rising.2016.D.BDRip.1080p.ExKinoRay.mkv
    Format : Matroska
    Format version : Version 4/Version 2
    File size : 11.4 GiB
    Duration : 1 h 32 min
    Overall bit rate : 17.7 Mb/s
    Movie name : Neighbors.2.Sorority.Rising.2016.D.BDRip.1080p.ExKinoRay
    Encoded date : UTC 2016-08-23 14: 08: 53
    Writing application : mkvmerge v8.3.0 (;Over the Horizon;) 64bit
    Writing library : libebml v1.3.1 + libmatroska v1.4.2
    Video
    ID : 1
    Format : AVC
    Format/Info : Advanced Video Codec
    Format profile : High@L4.1
    Format settings, CABAC : Yes
    Format settings, ReFrames : 5 frames
    Codec ID : V_MPEG4/ISO/AVC
    Duration : 1 h 32 min
    Bit rate : 15.8 Mb/s
    Width : 1 920 pixels
    Height : 800 pixels
    Display aspect ratio : 2.40: 1
    Frame rate mode : Constant
    Frame rate : 23.976 (24000/1001) FPS
    Color space : YUV
    Chroma subsampling : 4: 2: 0
    Bit depth : 8 bits
    Scan type : Progressive
    Bits/(Pixel*Frame) : 0.428
    Stream size : 10.2 GiB (89%)
    Writing library : x264 core 146 r2538 121396c
    Encoding settings : cabac=1/ref=5/deblock=1: -3: -3/analyse=0x3: 0x133/me=tesa/subme=11/psy=1/psy_rd=1.04: 0.00/mixed_ref=1/me_range=32/chroma_me=1/trellis=2/8x8dct=1/cqm=0/deadzone=21, 11/fast_pskip=0/chroma_qp_offset=-2/threads=60/lookahead_threads=6/sliced_threads=0/nr=0/decimate=0/interlaced=0/bluray_compat=0/constrained_intra=0/bframes=9/b_pyramid=2/b_adapt=2/b_bias=0/direct=3/weightb=1/open_gop=0/weightp=2/keyint=240/keyint_min=23/scenecut=40/intra_refresh=0/rc_lookahead=150/rc=crf/mbtree=0/crf=15.3/qcomp=0.60/qpmin=0/qpmax=69/qpstep=4/vbv_maxrate=62500/vbv_bufsize=78125/crf_max=0.0/nal_hrd=none/filler=0/ip_ratio=1.40/pb_ratio=1.30/aq=1: 0.80
    Language : English
    Default : Yes
    Forced : No
    Audio #1
    ID : 2
    Format : AC-3
    Format/Info : Audio Coding 3
    Mode extension : CM (complete main)
    Format settings, Endianness : Big
    Codec ID : A_AC3
    Duration : 1 h 32 min
    Bit rate mode : Constant
    Bit rate : 384 kb/s
    Channel(s) : 6 channels
    Channel positions : Front: L C R, Side: L R, LFE
    Sampling rate : 48.0 kHz
    Frame rate : 31.250 FPS (1536 spf)
    Compression mode : Lossy
    Stream size : 254 MiB (2%)
    Title : Dub iTunes
    Language : Russian
    Default : Yes
    Forced : No
    Audio #2
    ID : 3
    Format : DTS
    Format/Info : Digital Theater Systems
    Mode : 16
    Format settings, Endianness : Big
    Codec ID : A_DTS
    Duration : 1 h 32 min
    Bit rate mode : Constant
    Bit rate : 1 509 kb/s
    Channel(s) : 6 channels
    Channel positions : Front: L C R, Side: L R, LFE
    Sampling rate : 48.0 kHz
    Frame rate : 93.750 FPS (512 spf)
    Bit depth : 24 bits
    Compression mode : Lossy
    Stream size : 997 MiB (9%)
    Title : Original
    Language : English
    Default : No
    Forced : No
    Text #1
    ID : 4
    Format : UTF-8
    Codec ID : S_TEXT/UTF8
    Codec ID/Info : UTF-8 Plain Text
    Duration : 1 h 25 min
    Bit rate : 100 b/s
    Count of elements : 2127
    Stream size : 62.9 KiB (0%)
    Title : Full
    Language : English
    Default : No
    Forced : No
    Text #2
    ID : 5
    Format : UTF-8
    Codec ID : S_TEXT/UTF8
    Codec ID/Info : UTF-8 Plain Text
    Duration : 1 h 25 min
    Bit rate : 108 b/s
    Count of elements : 2267
    Stream size : 68.0 KiB (0%)
    Title : SDH
    Language : English
    Default : No
    Forced : No
    Menu
    00: 00: 00.000 : en: Chapter 1
    00: 06: 30.890 : en: Chapter 2
    00: 09: 50.381 : en: Chapter 3
    00: 13: 05.535 : en: Chapter 4
    00: 17: 37.890 : en: Chapter 5
    00: 22: 13.082 : en: Chapter 6
    00: 27: 34.278 : en: Chapter 7
    00: 31: 54.454 : en: Chapter 8
    00: 38: 36.022 : en: Chapter 9
    00: 44: 43.222 : en: Chapter 10
    00: 50: 42.039 : en: Chapter 11
    00: 54: 32.811 : en: Chapter 12
    01: 00: 54.609 : en: Chapter 13
    01: 04: 14.684 : en: Chapter 14
    01: 08: 26.644 : en: Chapter 15
    01: 12: 54.370 : en: Chapter 16
    01: 16: 34.423 : en: Chapter 17
    01: 20: 45.215 : en: Chapter 18
    01: 23: 18.994 : en: Chapter 19
    01: 26: 03.700 : en: Chapter 20
    Скриншоты

    Релиз подготовил: Автор релиза:

    Онлайн видео Соседи. На тропе войны 2


    Размер скачиваемого торрента: 11.39 GB (12232036843 Bytes)

    Соседи. На тропе войны 2/Neighbors 2: Sorority Rising (2016) BDRip 1080p от ExKinoRay | iTunes
    загрузка...
    Рейтинг →
     (голосов: 1, оценка 4/5, голосовать можно 1 раз )

    Другие торренты по теме:

  • Соседи. На тропе войны. BDRip(2014) скачать через торрент бесплатно
  • Соседи. На тропе войны / Neighbors (2014) CAMRip скачать через торрент бесплатно
  • Соседи. На тропе войны / Neighbors (2014) CAMRip скачать через торрент бесплатно
  • Соседи. На тропе войны / Neighbors (2014) WEB-DL 720p | Звук с TS скачать через торрент бесплатно
  • Соседи. На тропе войны / Neighbors скачать через торрент бесплатно
  • Соседи. На тропе войны / Neighbors скачать через торрент бесплатно
  • Соседи. На тропе войны / Neighbors скачать через торрент бесплатно
  • Соседи. На тропе войны / Neighbors торрент скачать бесплатно


    • Комментарии (0):

      Информация

      Информация

        Посетители, находящиеся в группе Гости, не могут оставлять комментарии в данной новости.

        ↓ Меню



        ↓ Опрос

        А Вы добавили сайт в закладки?
        Да
        Не


        Top 10 за неделю (Фильмы)