.
Авторизация | Регистрация
» » Соседи. На тропе войны 2 / Neighbors 2: Sorority Rising (2016) BDRemux 1080p от ExKinoRay | iTunes скачать торрент бесплатно




    Соседи. На тропе войны 2 / Neighbors 2: Sorority Rising (2016) BDRemux 1080p от ExKinoRay | iTunes скачать торрент бесплатно

    Опубликовал: Админ | Дата: 24-08-2016, 05:00 | Просмотров: 20



    Детально о кино
    Русское название: Соседи. На тропе войны 2
    Русское название в мировом прокате: Neighbors 2: Sorority Rising
    Создали в: 2016
    Категория жанра: Комедия
    Главный режиссер: Николас Столлер

    Актеры

    Сет Роген, Зак Эфрон, Роуз Бирн, Хлоя Грейс Морец, Айк Баринхолц, Кирси Клемонс, Дэйв Франко, Джеррод
    Кармайкл, Кристофер Минц-Плассе, Бини Фелдштейн
    О фильме:
    На этот раз в дом по соседству с Маком и Келли въезжает университетский женский клуб. Чтобы разобраться с новыми соседями, которые не дают им покоя, Мак и Келли решают обратиться за помощью к их бывшему врагу — Тедди Сандерсу...

    Снималось в: США
    Киностудия: Good Universe, Point Grey Pictures
    Время просмотра: 01: 32: 23
    Перевод текста: Дублированный | iTunes
    Файл
    Кодек для видео: MPEG-4
    Качество фильма: BDRemux 1080p
    Информация о видео: 1920x1080, 31.0 Mbit/s, 23.976 fps
    Информация о звуке:
    Информация о звуке #01: 48 kHz, AC3, 5.1, 384 Kbps | Дублированный, iTunes |
    Информация о звуке #02: 48 kHz, DTS-HD MA, 5.1, 3680 kbps | Оригинал |
    Субтитры: Английские

    MI
    General
    Unique ID : 194884667342807687012304360021169830919 (0x929D6BF17FF8B0D79A1350B120B87C07)
    Complete name : G: VideoNeighbors.2.Sorority.Rising.2016.D.BDREMUX.1080p.ExKinoRay.mkv
    Format : Matroska
    Format version : Version 4/Version 2
    File size : 22.6 GiB
    Duration : 1 h 32 min
    Overall bit rate mode : Variable
    Overall bit rate : 35.1 Mb/s
    Movie name : Neighbors.2.Sorority.Rising.2016.D.BDREMUX.1080p.ExKinoRay
    Encoded date : UTC 2016-08-23 14: 39: 52
    Writing application : mkvmerge v8.3.0 (;Over the Horizon;) 64bit
    Writing library : libebml v1.3.1 + libmatroska v1.4.2
    Video
    ID : 1
    Format : AVC
    Format/Info : Advanced Video Codec
    Format profile : High@L4.1
    Format settings, CABAC : Yes
    Format settings, ReFrames : 4 frames
    Format settings, GOP : M=3, N=12
    Codec ID : V_MPEG4/ISO/AVC
    Duration : 1 h 32 min
    Bit rate mode : Variable
    Bit rate : 31.0 Mb/s
    Maximum bit rate : 33.0 Mb/s
    Width : 1 920 pixels
    Height : 1 080 pixels
    Display aspect ratio : 16: 9
    Frame rate mode : Constant
    Frame rate : 23.976 (24000/1001) FPS
    Color space : YUV
    Chroma subsampling : 4: 2: 0
    Bit depth : 8 bits
    Scan type : Progressive
    Bits/(Pixel*Frame) : 0.624
    Stream size : 20.0 GiB (88%)
    Language : English
    Default : Yes
    Forced : No
    Audio #1
    ID : 2
    Format : AC-3
    Format/Info : Audio Coding 3
    Mode extension : CM (complete main)
    Format settings, Endianness : Big
    Codec ID : A_AC3
    Duration : 1 h 32 min
    Bit rate mode : Constant
    Bit rate : 384 kb/s
    Channel(s) : 6 channels
    Channel positions : Front: L C R, Side: L R, LFE
    Sampling rate : 48.0 kHz
    Frame rate : 31.250 FPS (1536 spf)
    Compression mode : Lossy
    Stream size : 254 MiB (1%)
    Title : Dub iTunes
    Language : Russian
    Default : Yes
    Forced : No
    Audio #2
    ID : 3
    Format : DTS
    Format/Info : Digital Theater Systems
    Format profile : MA/Core
    Mode : 16
    Format settings, Endianness : Big
    Codec ID : A_DTS
    Duration : 1 h 32 min
    Bit rate mode : Variable/Constant
    Bit rate : 3 680 kb/s/1 509 kb/s
    Channel(s) : 6 channels
    Channel positions : Front: L C R, Side: L R, LFE
    Sampling rate : 48.0 kHz
    Frame rate : 93.750 FPS (512 spf)
    Bit depth : 24 bits
    Compression mode : Lossless/Lossy
    Stream size : 2.37 GiB (10%)
    Title : Original
    Language : English
    Default : No
    Forced : No
    Text #1
    ID : 4
    Format : UTF-8
    Codec ID : S_TEXT/UTF8
    Codec ID/Info : UTF-8 Plain Text
    Duration : 1 h 25 min
    Bit rate : 100 b/s
    Count of elements : 2127
    Stream size : 62.9 KiB (0%)
    Title : Full
    Language : English
    Default : No
    Forced : No
    Text #2
    ID : 5
    Format : UTF-8
    Codec ID : S_TEXT/UTF8
    Codec ID/Info : UTF-8 Plain Text
    Duration : 1 h 25 min
    Bit rate : 108 b/s
    Count of elements : 2267
    Stream size : 68.0 KiB (0%)
    Title : SDH
    Language : English
    Default : No
    Forced : No
    Menu
    00: 00: 00.000 : en: Chapter 1
    00: 06: 30.890 : en: Chapter 2
    00: 09: 50.381 : en: Chapter 3
    00: 13: 05.535 : en: Chapter 4
    00: 17: 37.890 : en: Chapter 5
    00: 22: 13.082 : en: Chapter 6
    00: 27: 34.278 : en: Chapter 7
    00: 31: 54.454 : en: Chapter 8
    00: 38: 36.022 : en: Chapter 9
    00: 44: 43.222 : en: Chapter 10
    00: 50: 42.039 : en: Chapter 11
    00: 54: 32.811 : en: Chapter 12
    01: 00: 54.609 : en: Chapter 13
    01: 04: 14.684 : en: Chapter 14
    01: 08: 26.644 : en: Chapter 15
    01: 12: 54.370 : en: Chapter 16
    01: 16: 34.423 : en: Chapter 17
    01: 20: 45.215 : en: Chapter 18
    01: 23: 18.994 : en: Chapter 19
    01: 26: 03.700 : en: Chapter 20
    Скриншоты

    Релиз подготовил: Автор релиза:

    Онлайн видео Соседи. На тропе войны 2


    Размер скачиваемого торрента: 22.64 GB (24304965876 Bytes)

    Соседи. На тропе войны 2/Neighbors 2: Sorority Rising (2016) BDRemux 1080p от ExKinoRay | iTunes
    загрузка...
    Рейтинг →
     (голосов: 1, оценка 5/5, голосовать можно 1 раз )

    Другие торренты по теме:

  • Соседи. На тропе войны. BDRip(2014) скачать через торрент бесплатно
  • Соседи. На тропе войны / Neighbors (2014) CAMRip скачать через торрент бесплатно
  • Соседи. На тропе войны / Neighbors (2014) CAMRip скачать через торрент бесплатно
  • Соседи. На тропе войны / Neighbors (2014) WEB-DL 720p | Звук с TS скачать через торрент бесплатно
  • Соседи. На тропе войны / Neighbors скачать через торрент бесплатно
  • Соседи. На тропе войны / Neighbors скачать через торрент бесплатно
  • Соседи. На тропе войны / Neighbors скачать через торрент бесплатно
  • Соседи. На тропе войны / Neighbors торрент скачать бесплатно


    • Комментарии (0):

      Информация

      Информация

        Посетители, находящиеся в группе Гости, не могут оставлять комментарии в данной новости.

        ↓ Меню



        ↓ Опрос

        А Вы добавили сайт в закладки?
        Да
        Не


        Top 10 за неделю (Фильмы)