.
Авторизация | Регистрация
Хочешь лучшие торренты? Добавь свой email!
Добавить
» » Подношение / The Offering (2016) HDRip | L торрент скачать бесплатно




    Подношение / The Offering (2016) HDRip | L торрент скачать бесплатно

    Опубликовал: Админ | Дата: 25-08-2016, 05:00 | Просмотров: 35



    Подношение / The Faith of Anna Waters / The Offering
    Снималось в: СингапурСША
    Создали в: Boku Films, Boku Films Pte Limited, PEP Pictures
    Создали в: 2016
    Категория жанра: ужасы, триллер, драма, детектив
    Время просмотра: 01: 35: 30
    Главный режиссер: Келвин Тонг
    Автор сценария: Келвин Тонг

    Актеры
    Мэттью Сеттл, Элизабет Райс, Памелин Чи, Кхенг Хуа Тан, Адина Херц, Джейми Онг, Элизабет Лазан, Адриан Пэнг
    Описание: Когда Джейми узнает, что её сестра умерла при загадочных обстоятельствах, она уезжает в Сингапур в поисках истины. По прибытии она обнаруживает несколько смертельных случаев, схожих с тем, что случилось с её сестрой...

    Перевод текста: Любительский (многоголосый) | den904, DeadSno, Izanami, Agent Smith
    Субтитры: нет
    Качество фильма: HDRip
    Тип видео: AVI
    Информация о видео кодек: XviD
    Информация о звуке кодек: АС3
    Информация о видео: 688x288 (2.40: 1), 24.000 fps, XviD ~890 kbps avg
    Информация о звуке: 48.0 kHz, AC3 Dolby Digital, 2/0 (L, R) ch, ~192 kbps
    Дата премьеры (мир): 16 марта 2016

    Media Info

    Полное имя : Подношение (ужасы, триллер, драма 2016г).avi
    Формат : AVI
    Формат/Информация : Audio Video Interleave
    Размер файла : 745 Мбайт
    Продолжительность : 1 ч. 35 м.
    Общий поток : 1091 Кбит/сек
    Программа кодирования : VirtualDubMod 1.5.10.3 | (build 2550/release)
    Библиотека кодирования : VirtualDubMod build 2550/release
    Видео
    Идентификатор : 0
    Формат : MPEG-4 Visual
    Профиль формата : Advanced Simple@L5
    Параметр BVOP формата : 2
    Параметр QPel формата : Нет
    Параметр GMC формата : Без точки перехода
    Параметр матрицы формата : Выборочная
    Идентификатор кодека : XVID
    Идентификатор кодека/Подсказка : XviD
    Продолжительность : 1 ч. 35 м.
    Битрейт : 890 Кбит/сек
    Ширина : 688 пикселей
    Высота : 288 пикселей
    Соотношение сторон : 2, 40: 1
    Частота кадров : 24, 000 кадра/сек
    Цветовое пространство : YUV
    Субдискретизация насыщенности : 4: 2: 0
    Битовая глубина : 8 бит
    Тип развёртки : Прогрессивная
    Метод сжатия : С потерями
    Бит/(Пиксели*Кадры) : 0.187
    Размер потока : 608 Мбайт (82%)
    Библиотека кодирования : XviD 1.2.1 (UTC 2008-12-04)
    Аудио
    Идентификатор : 1
    Формат : AC-3
    Формат/Информация : Audio Coding 3
    Расширение режима : CM (complete main)
    Параметр Endianness формата : Big
    Идентификатор кодека : 2000
    Продолжительность : 1 ч. 35 м.
    Вид битрейта : Постоянный
    Битрейт : 192 Кбит/сек
    Каналы : 2 канала
    Расположение каналов : Front: L R
    Частота : 48, 0 КГц
    Частота кадров : 31, 250 кадров/сек (1536 spf)
    Метод сжатия : С потерями
    Размер потока : 131 Мбайт (18%)
    Выравнивание : Разделение по промежуткам
    Продолжительность промежутка : 42 мс. (1, 00 видеокадр)
    Время предзагрузки промежутка : 500 мс.

    Скриншоты

    Залил: Zha-4k-e

    Онлайн видео Подношение


    Размер скачиваемого торрента: 745.29 MB (781490176 Bytes)

    Подношение/The Offering (2016) HDRip | L
    загрузка...
    Рейтинг →
     (голосов: 1, оценка 3/5, голосовать можно 1 раз )

    Другие торренты по теме:

  • Подношение / The Offering (2016)
  • Подношение / The Offering (2016) BDRip 1080p | L, L1
  • Подношение / The Offering (2016) BDRip 720p | L, L1


    • Комментарии (0):

      Информация

      Информация

        Посетители, находящиеся в группе Гости, не могут оставлять комментарии в данной новости.

        ↓ Меню



        ↓ Опрос

        А Вы добавили сайт в закладки?
        Да
        Не


        Top 10 за месяц (Фильмы)