.
Авторизация | Регистрация
» » Справедливость или хаос / Lenqute (2014) HDTVRip | P скачать торрент бесплатно




    Справедливость или хаос / Lenqute (2014) HDTVRip | P скачать торрент бесплатно

    Опубликовал: Админ | Дата: 25-08-2016, 05:00 | Просмотров: 57



    Русское название: Справедливость или хаос (Расследование)
    Русское название в мировом прокате: L;enqu?te
    Создали в: 2014
    Категория жанра: Триллер
    Снималось в: Франция, Люксембург, Бельгия, Art?mis Productions, Belfius, Belgacom, Canal+ fr, Casa Kafka Pictures
    Главный режиссер: Венсан Гаренк

    Актеры
    Жиль Леллуш, Шарль Берлинг, Лорен Капеллуто, Флоранс Луаре, Кристиан Кмиотек, Грегуар Бонне, Антуан Гуи, Эрик Наггар, Жиль Арбона, Эрве Фаллю

    Сюжет фильма
    Политический триллер о том, к чему может привести журналистское расследование, с Жилем Леллушем в главной роли. Разоблачение журналистом Дэни Робером темных делишек банковской фирмы Clearstream, вызывает настоящую бурю в европейском финансовом мире. Продолжая разбираться в хитросплетениях сомнительных международных банковских операций, Робер знакомится с судьей Рено ван Раимбеке, возглавляющим масштабное расследование коррупционных схем. Вскоре совместные поиски позволяют им сделать выводы, обнародование которых может иметь весьма серьезные последствия для Франции и всей Европы.
    Время просмотра: 01: 37: 22
    Перевод текста: Профессиональный многоголосый
    Качество фильма: HDTVRip
    Информация о видео: XviD, 1813 Кбит/с, 720x304
    Информация о звуке: AC3, 2 ch, 192 Кбит/с | Русский
    Mediainfo
    Полное имя : E: Spravedlivost.ili.haos.2014.tahiy.avi
    Формат : AVI
    Формат/Информация : Audio Video Interleave
    Размер файла : 1, 37 Гбайт
    Продолжительность : 1 ч. 37 м.
    Общий поток : 2015 Кбит/сек
    Название фильма : Spravedlivost.ili.haos.2014.tahiy
    Программа кодирования : VirtualDubMod 1.5.10.3 | www.virtualdub-fr.org || (build 2550/release)
    Видео
    Идентификатор : 0
    Формат : MPEG-4 Visual
    Профиль формата : Advanced Simple@L5
    Параметр BVOP формата : 1
    Параметр QPel формата : Нет
    Параметр GMC формата : Без точки перехода
    Параметр матрицы формата : Default (MPEG)
    Идентификатор кодека : XVID
    Идентификатор кодека/Подсказка : XviD
    Продолжительность : 1 ч. 37 м.
    Битрейт : 1813 Кбит/сек
    Ширина : 720 пикселей
    Высота : 304 пикселя
    Соотношение сторон : 2, 35: 1
    Частота кадров : 25, 000 кадров/сек
    Цветовое пространство : YUV
    Субдискретизация насыщенности : 4: 2: 0
    Битовая глубина : 8 бит
    Тип развёртки : Прогрессивная
    Метод сжатия : С потерями
    Бит/(Пиксели*Кадры) : 0.331
    Размер потока : 1, 23 Гбайт (90%)
    Библиотека кодирования : XviD 73
    Аудио
    Идентификатор : 1
    Формат : AC-3
    Формат/Информация : Audio Coding 3
    Расширение режима : CM (complete main)
    Параметр Endianness формата : Big
    Идентификатор кодека : 2000
    Продолжительность : 1 ч. 37 м.
    Вид битрейта : Постоянный
    Битрейт : 192 Кбит/сек
    Каналы : 2 канала
    Расположение каналов : Front: L R
    Частота : 48, 0 КГц
    Частота кадров : 31, 250 кадров/сек (1536 spf)
    Метод сжатия : С потерями
    Размер потока : 134 Мбайт (10%)
    Выравнивание : Разделение по промежуткам
    Продолжительность промежутка : 40 мс. (1, 00 видеокадр)
    Время предзагрузки промежутка : 500 мс.
    Спасибо
    За исходник спасибо Silverok




    Онлайн видео Справедливость или хаос


    Размер скачиваемого торрента: 1.37 GB (1471250432 Bytes)

    Справедливость или хаос/Lenqute (2014) HDTVRip | P
    загрузка...
    Рейтинг →
     (голосов: 1, оценка 4/5, голосовать можно 1 раз )

    Другие торренты по теме:

  • Справедливость или хаос / Lenqute (2014) HDRip | P скачать торрент бесплатно
  • Справедливость или хаос / Lenquete (2014) BDRip 1080p | P скачать торрент бесплатно


    • Комментарии (0):

      Информация

      Информация

        Посетители, находящиеся в группе Гости, не могут оставлять комментарии в данной новости.

        ↓ Меню



        ↓ Опрос

        А Вы добавили сайт в закладки?
        Да
        Не


        Top 10 за неделю (Фильмы)