.
Авторизация | Регистрация
Хочешь лучшие торренты? Добавь свой email!
Добавить




Вольница (1955) SATRip от New-Team торрент скачать бесплатно

Опубликовал: Админ | Дата: 27-08-2016, 05:01 | Просмотров: 69



Снималось в: СССР
Создали в: Мосфильм
Категория жанра: драма, история
Создали в: 1955
Время просмотра: 01: 39: 55
Перевод текста: Не требуется
Субтитры подготовлены: нет
Оригинальная аудиодорожка: русский
Главный режиссер: Григорий Рошаль

Актеры

Миша Меркулов, Руфина Нифонтова, Всеволод Платов, Татьяна Конюхова, Артур Эйзен, Вера Енютина, Леонид Пархоменко, Николай Гладков, Владимир Балашов, Александр Хвыля, Александр Борисов, Елена Адамайтис-Астангова, Юрий Белов, Валентина Ананьина, Валентина Березуцкая, Майя Булгакова, Мария Виноградова, Олеся Иванова, Мария Кремнёва, Сергей Троицкий...
Полный список актёров
Описание:
По одноименной повести Федора Гладкова.
Драма из жизни крестьянской семьи, приехавшей на рыбные промыслы в Астрахань. Действие фильма происходит в конце XIX - начале ХХ вв. Первые роли в кино Юрия Белова, Руфины Нифонтовой, Майи Булгаковой и Валентины Владимировой (эпизод).



Источник: DVB
Качество фильма видео: SATRip
Тип видео видео: AVI
Информация о видео: 704x528 (4: 3), 25 fps, XviD ~ 1890 kbps avg, 0.203 bit/pixel
Информация о звуке: 48 kHz, Dolby Digital AC3 2.0, 192 kbps
Раздача от:
MediaInfo

Общее
Полное имя : Volnica.1955.SATRip_New-team_by_AVP_Studio.avi
Формат : AVI
Формат/Информация : Audio Video Interleave
Размер файла : 1, 46 Гбайт
Продолжительность : 1 ч. 39 м.
Общий поток : 2091 Кбит/сек
Программа кодирования : VirtualDubMod 1.5.10.3 | www.virtualdub-fr.org || (build 2550/release)
Библиотека кодирования : VirtualDubMod build 2550/release
Видео
Идентификатор : 0
Формат : MPEG-4 Visual
Профиль формата : Advanced Simple@L5
Параметр BVOP формата : 1
Параметр QPel формата : Нет
Параметр GMC формата : Без точки перехода
Параметр матрицы формата : Выборочная
Идентификатор кодека : XVID
Идентификатор кодека/Подсказка : XviD
Продолжительность : 1 ч. 39 м.
Битрейт : 1890 Кбит/сек
Ширина : 704 пикселя
Высота : 528 пикселей
Соотношение сторон : 4: 3
Частота кадров : 25, 000 кадров/сек
Цветовое пространство : YUV
Субдискретизация насыщенности : 4: 2: 0
Битовая глубина : 8 бит
Тип развёртки : Прогрессивная
Метод сжатия : С потерями
Бит/(Пиксели*Кадры) : 0.203
Размер потока : 1, 32 Гбайт (90%)
Библиотека кодирования : XviD 1.2.1 (UTC 2008-12-04)
Аудио
Идентификатор : 1
Формат : AC-3
Формат/Информация : Audio Coding 3
Расширение режима : CM (complete main)
Параметр Endianness формата : Big
Идентификатор кодека : 2000
Продолжительность : 1 ч. 39 м.
Вид битрейта : Постоянный
Битрейт : 192 Кбит/сек
Каналы : 2 канала
Расположение каналов : Front: L R
Частота : 48, 0 КГц
Частота кадров : 31, 250 кадров/сек (1536 spf)
Метод сжатия : С потерями
Размер потока : 137 Мбайт (9%)
Выравнивание : Разделение по промежуткам
Продолжительность промежутка : 40 мс. (1, 00 видеокадр)
Время предзагрузки промежутка : 500 мс

Скриншоты



Залил: AVPStudio

Онлайн видео Вольница (1955) SATRip от New


Размер скачиваемого торрента: 1.46 GB (1567356928 Bytes)

Вольница (1955) SATRip от New-Team
загрузка...
Рейтинг →
 (голосов: 1, оценка 3/5, голосовать можно 1 раз )

Другие торренты по теме:



    Комментарии (0):

    Информация

    Информация

      Посетители, находящиеся в группе Гости, не могут оставлять комментарии в данной новости.

      ↓ Меню



      ↓ Опрос

      А Вы добавили сайт в закладки?
      Да
      Не


      Top 10 за месяц (Фильмы)