.
Авторизация | Регистрация
» » Кандидат / Kandidaten (2008) BDRip 1080p | А, L1 скачать торрент бесплатно




    Кандидат / Kandidaten (2008) BDRip 1080p | А, L1 скачать торрент бесплатно

    Опубликовал: Админ | Дата: 28-08-2016, 05:01 | Просмотров: 44



    Русское название: Кандидат
    Русское название в мировом прокате: Kandidaten (The Candidate)
    Создали в: 2008
    Категория жанра: Триллер
    Снималось в: Дания, Miso Film
    Главный режиссер: Каспер Барфоэд

    Актеры
    Николай Ли Каас, Ульф Пилгаард, Лаура Кристенсен, Тува Новотны, Давид Денсик, Ким Бодния, Хеннинг Енсен, Йеспер Лангберг, Биргитта Йорт Сёренсен, Хеннинг Валин Якобсен

    Сюжет фильма
    Фильм про респектабельного молодого датского адвоката Йонаса (Николай Ли Каас), который практически не проигрывает процессы на суде. Всё в его жизни хорошо: у него престижная работа, прекрасный отец, достойная девушка, с которой он обручен.... и вдруг, что -то ломается в его жизни. Сначала внезапно погибает отец, потом в тартарары летит социальный успех, а вчерашняя невеста уже не находит с главным героем взаимопонимания. Да ко всему ещё внезапно Йонас оказывается вовлеченным в череду странных обстоятельств: нечаянно он становится убийцей и подвергается шантажу со стороны неизвестных и очень коварных людей. Борьба с тенями - самая тяжелая борьба, она сродни борьбе с самим собой. И герой вступает в эту схватку, он не бежит от ужаса происходящего, как ему советует один из фигурантов дела, связанного с убийством его отца. Напротив, весь фильм Йонас пытается настигнуть этот ужас, и подавить его. Смекалка адвоката, хорошие спортивные данные, чёткость быстрого анализа событий, внимательность к деталям, помогают ему в этом. У фильма достойный финал.
    Время просмотра: 01: 34: 51
    Перевод текста: Авторский, любительский одноголосый
    Качество фильма: BDRip 1080p
    Информация о видео: MPEG-4 AVC, 8500 Кбит/с, 1920x816
    Информация о звуке: АС3, 6 ch, 448 Кбит/с | Авторский Карповский
    Информация о звуке: DTS, 6 ch, 768 Кбит/с | Авторский Карповский
    Информация о звуке: AC3, 2 ch, 192 Кбит/с | Любительский одноголосый Rider
    Информация о звуке: DTS, 6 ch, 755 Кбит/с | Оригинальная дорожка
    Субтитры: Русские, английские, датские
    Mediainfo
    Полное имя : E: Kandidaten.2008.tahiy.mkv
    Формат : Matroska
    Версия формата : Version 2
    Размер файла : 7, 07 Гбайт
    Продолжительность : 1 ч. 34 м.
    Общий поток : 10, 7 Мбит/сек
    Название фильма : Kandidaten.2008.tahiy
    Дата кодирования : UTC 2016-08-26 07: 31: 16
    Программа кодирования : mkvmerge v4.0.0 (;The Stars were mine;) сборка от Jun 5 2010 17: 44: 09
    Библиотека кодирования : libebml v1.0.0 + libmatroska v1.0.0
    Видео
    Идентификатор : 1
    Формат : AVC
    Формат/Информация : Advanced Video Codec
    Профиль формата : High@L4.1
    Параметр CABAC формата : Да
    Параметр ReFrames формата : 4 кадра
    Идентификатор кодека : V_MPEG4/ISO/AVC
    Продолжительность : 1 ч. 34 м.
    Битрейт : 8500 Кбит/сек
    Ширина : 1920 пикселей
    Высота : 816 пикселей
    Соотношение сторон : 2, 35: 1
    Режим частоты кадров : Постоянный
    Частота кадров : 25, 000 кадров/сек
    Цветовое пространство : YUV
    Субдискретизация насыщенности : 4: 2: 0
    Битовая глубина : 8 бит
    Тип развёртки : Прогрессивная
    Бит/(Пиксели*Кадры) : 0.217
    Размер потока : 5, 49 Гбайт (78%)
    Заголовок : Kandidaten.2008.tahiy
    Библиотека кодирования : x264 core 130 r2273 b3065e6
    Настройки программы : cabac=1/ref=4/deblock=1: -2: -2/analyse=0x3: 0x113/me=umh/subme=10/psy=1/psy_rd=1.00: 0.20/mixed_ref=1/me_range=32/chroma_me=1/trellis=2/8x8dct=1/cqm=0/deadzone=21, 11/fast_pskip=0/chroma_qp_offset=-3/threads=6/lookahead_threads=1/sliced_threads=0/nr=0/decimate=0/interlaced=0/bluray_compat=0/constrained_intra=0/bframes=8/b_pyramid=2/b_adapt=2/b_bias=0/direct=3/weightb=1/open_gop=0/weightp=2/keyint=250/keyint_min=25/scenecut=40/intra_refresh=0/rc_lookahead=40/rc=2pass/mbtree=0/bitrate=8500/ratetol=1.0/qcomp=0.60/qpmin=0/qpmax=69/qpstep=4/cplxblur=20.0/qblur=0.5/vbv_maxrate=50000/vbv_bufsize=62500/nal_hrd=none/ip_ratio=1.40/pb_ratio=1.30/aq=1: 1.00
    Язык : Danish
    Default : Да
    Forced : Нет
    Аудио #1
    Идентификатор : 2
    Формат : AC-3
    Формат/Информация : Audio Coding 3
    Расширение режима : CM (complete main)
    Параметр Endianness формата : Big
    Идентификатор кодека : A_AC3
    Продолжительность : 1 ч. 34 м.
    Вид битрейта : Постоянный
    Битрейт : 448 Кбит/сек
    Каналы : 6 каналов
    Расположение каналов : Front: L C R, Side: L R, LFE
    Частота : 48, 0 КГц
    Частота кадров : 31, 250 кадров/сек (1536 spf)
    Метод сжатия : С потерями
    Размер потока : 304 Мбайт (4%)
    Заголовок : AVO (Антон Карповский) (AC3 5.1 448 kbps)
    Язык : Russian
    Default : Да
    Forced : Нет
    Аудио #2
    Идентификатор : 3
    Формат : DTS
    Формат/Информация : Digital Theater Systems
    Режим : 16
    Параметр Endianness формата : Big
    Идентификатор кодека : A_DTS
    Продолжительность : 1 ч. 34 м.
    Вид битрейта : Постоянный
    Битрейт : 768 Кбит/сек
    Каналы : 6 каналов
    Расположение каналов : Front: L C R, Side: L R, LFE
    Частота : 48, 0 КГц
    Частота кадров : 93, 750 кадра/сек (512 spf)
    Битовая глубина : 24 бит
    Метод сжатия : С потерями
    Задержка видео : 11 мс.
    Размер потока : 521 Мбайт (7%)
    Заголовок : AVO (Антон Карповский) (DTS 5.1 768 kbps)
    Язык : Russian
    Default : Нет
    Forced : Нет
    Аудио #3
    Идентификатор : 4
    Формат : AC-3
    Формат/Информация : Audio Coding 3
    Расширение режима : CM (complete main)
    Параметр Endianness формата : Big
    Идентификатор кодека : A_AC3
    Продолжительность : 1 ч. 34 м.
    Вид битрейта : Постоянный
    Битрейт : 192 Кбит/сек
    Каналы : 2 канала
    Расположение каналов : Front: L R
    Частота : 48, 0 КГц
    Частота кадров : 31, 250 кадров/сек (1536 spf)
    Метод сжатия : С потерями
    Размер потока : 130 Мбайт (2%)
    Заголовок : VO (Александр Райдер - Rider) (AC3 2.0 192 kbps)
    Язык : Russian
    Default : Нет
    Forced : Нет
    Аудио #4
    Идентификатор : 5
    Формат : DTS
    Формат/Информация : Digital Theater Systems
    Режим : 16
    Параметр Endianness формата : Big
    Идентификатор кодека : A_DTS
    Продолжительность : 1 ч. 34 м.
    Вид битрейта : Постоянный
    Битрейт : 755 Кбит/сек
    Каналы : 6 каналов
    Расположение каналов : Front: L C R, Side: L R, LFE
    Частота : 48, 0 КГц
    Частота кадров : 93, 750 кадра/сек (512 spf)
    Битовая глубина : 24 бит
    Метод сжатия : С потерями
    Размер потока : 512 Мбайт (7%)
    Заголовок : DTS 5.1 755 kbps
    Язык : Danish
    Default : Нет
    Forced : Нет
    Текст #1
    Идентификатор : 6
    Формат : UTF-8
    Идентификатор кодека : S_TEXT/UTF8
    Идентификатор кодека/Информация : UTF-8 Plain Text
    Язык : Russian
    Default : Нет
    Forced : Нет
    Текст #2
    Идентификатор : 7
    Формат : UTF-8
    Идентификатор кодека : S_TEXT/UTF8
    Идентификатор кодека/Информация : UTF-8 Plain Text
    Язык : Danish
    Default : Нет
    Forced : Нет
    Текст #3
    Идентификатор : 8
    Формат : UTF-8
    Идентификатор кодека : S_TEXT/UTF8
    Идентификатор кодека/Информация : UTF-8 Plain Text
    Язык : English
    Default : Нет
    Forced : Нет
    Меню
    00: 00: 00.000 : da: 00: 00: 00.000
    00: 13: 52.000 : da: 00: 13: 52.000
    00: 31: 05.000 : da: 00: 31: 05.000
    00: 45: 16.000 : da: 00: 45: 16.000
    01: 01: 54.000 : da: 01: 01: 54.000
    01: 17: 01.000 : da: 01: 17: 01.000
    01: 32: 34.000 : da: 01: 32: 34.000




    Онлайн видео Кандидат


    Размер скачиваемого торрента: 7.07 GB (7586324765 Bytes)

    Кандидат/Kandidaten (2008) BDRip 1080p | А, L1
    загрузка...
    Рейтинг →
     (голосов: 1, оценка 4/5, голосовать можно 1 раз )

    Другие торренты по теме:

  • Кандидат / Kandidaten (2008) BDRip | А скачать торрент бесплатно
  • Кандидат / Kandidaten / The Candidate (2008) BDRip-AVC | A, L1 скачать торрент бесплатно


    • Комментарии (0):

      Информация

      Информация

        Посетители, находящиеся в группе Гости, не могут оставлять комментарии в данной новости.

        ↓ Меню



        ↓ Опрос

        А Вы добавили сайт в закладки?
        Да
        Не


        Top 10 за неделю (Фильмы)