.
Авторизация | Регистрация
Хочешь лучшие торренты? Добавь свой email!
Добавить
» » Темнота / The Darkness (2016) BDRip 1080p от ExKinoRay | L торрент скачать бесплатно




    Темнота / The Darkness (2016) BDRip 1080p от ExKinoRay | L торрент скачать бесплатно

    Опубликовал: Админ | Дата: 29-08-2016, 05:00 | Просмотров: 22



    Детально о кино
    Русское название: Темнота
    Русское название в мировом прокате: The Darkness
    Создали в: 2016
    Категория жанра: Ужасы, триллер
    Главный режиссер: Грег МакЛин

    Актеры
    Дженнифер Моррисон, Люси Фрай, Кевин Бэйкон, Рада Митчелл, Минг-На, Дэвид Мазоуз, Мэтт Уолш, Тара Барр, Пол Райзер, Ильза Розарио
    О фильме:
    После отпуска в Гранд-Каньоне семья возвращается домой, невольно прихватив с собой нечто сверхъестественное. Не заставив себя долго ждать, это нечто начинает питаться их страхами и секретами…

    Снималось в: США
    Киностудия: Blumhouse Productions, Chapter One Films
    Время просмотра: 01: 32: 21
    Перевод текста: Любительский многоголосый (закадровый) | Студия Пиратского Дубляжа
    Файл
    Кодек для видео: MPEG-4
    Качество фильма: BDRip 1080p
    Информация о видео: 1920x804, 9535 Кbit/s, 23.976 fps
    Информация о звуке:
    Информация о звуке #01: 48 kHz, DTS, 5.1, 1510 Kbps | Любительский многоголосый (закадровый) | СПД |
    Информация о звуке #02: 48 kHz, AC3, 5.1, 640 Kbps | Любительский многоголосый (закадровый) | СПД |
    Информация о звуке #03: 48 kHz, DTS, 5.1, 1510 kbps | Оригинал |
    Субтитры: Английские

    MI
    General
    Unique ID : 171701719265478911697972496117527270973 (0x812C8C5B011AD6D7A95AF4117F4CD63D)
    Complete name : G: VideoThe.Darkness.2016.BDRip.1080p.ExKinoRay.mkv
    Format : Matroska
    Format version : Version 4/Version 2
    File size : 8.51 GiB
    Duration : 1 h 32 min
    Overall bit rate : 13.2 Mb/s
    Movie name : The.Darkness.2016.BDRip.1080p.ExKinoRay
    Encoded date : UTC 2016-08-28 11: 39: 21
    Writing application : mkvmerge v8.3.0 (;Over the Horizon;) 64bit
    Writing library : libebml v1.3.1 + libmatroska v1.4.2
    Video
    ID : 1
    Format : AVC
    Format/Info : Advanced Video Codec
    Format profile : High@L4.1
    Format settings, CABAC : Yes
    Format settings, ReFrames : 5 frames
    Codec ID : V_MPEG4/ISO/AVC
    Duration : 1 h 32 min
    Bit rate : 9 535 kb/s
    Width : 1 920 pixels
    Height : 804 pixels
    Display aspect ratio : 2.40: 1
    Frame rate mode : Constant
    Frame rate : 23.976 (24000/1001) FPS
    Color space : YUV
    Chroma subsampling : 4: 2: 0
    Bit depth : 8 bits
    Scan type : Progressive
    Bits/(Pixel*Frame) : 0.258
    Stream size : 6.15 GiB (72%)
    Writing library : x264 core 148 r2699+6+41 29a38aa Yuuki 8-bit@4: 2: 0 X86_64GCC 5.3.0
    Encoding settings : cabac=1/ref=5/deblock=1: -3: -3/analyse=0x3: 0x113/me=umh/subme=11/psy=1/fade_compensate=0.00/psy_rd=1.00: 0.05/mixed_ref=1/me_range=32/chroma_me=1/trellis=2/8x8dct=1/cqm=0/deadzone=21, 11/fast_pskip=0/chroma_qp_offset=-4/threads=24/lookahead_threads=4/sliced_threads=0/nr=0/decimate=1/interlaced=0/bluray_compat=0/constrained_intra=0/fgo=0/bframes=8/b_pyramid=2/b_adapt=2/b_bias=0/direct=3/weightb=1/open_gop=0/weightp=2/keyint=250/keyint_min=23/scenecut=40/intra_refresh=0/rc_lookahead=40/rc=crf/mbtree=0/crf=18.6000/qcomp=0.60/qpmin=0: 0: 0/qpmax=69: 69: 69/qpstep=4/vbv_maxrate=50000/vbv_bufsize=40000/crf_max=0.0/nal_hrd=none/filler=0/ip_ratio=1.40/pb_ratio=1.30/aq=3: 0.90
    Language : English
    Default : Yes
    Forced : No
    Audio #1
    ID : 2
    Format : DTS
    Format/Info : Digital Theater Systems
    Mode : 16
    Format settings, Endianness : Big
    Codec ID : A_DTS
    Duration : 1 h 32 min
    Bit rate mode : Constant
    Bit rate : 1 509 kb/s
    Channel(s) : 6 channels
    Channel positions : Front: L C R, Side: L R, LFE
    Sampling rate : 48.0 kHz
    Frame rate : 93.750 FPS (512 spf)
    Bit depth : 24 bits
    Compression mode : Lossy
    Stream size : 997 MiB (11%)
    Title : MVO
    Language : Russian
    Default : Yes
    Forced : No
    Audio #2
    ID : 3
    Format : AC-3
    Format/Info : Audio Coding 3
    Mode extension : CM (complete main)
    Format settings, Endianness : Big
    Codec ID : A_AC3
    Duration : 1 h 32 min
    Bit rate mode : Constant
    Bit rate : 640 kb/s
    Channel(s) : 6 channels
    Channel positions : Front: L C R, Side: L R, LFE
    Sampling rate : 48.0 kHz
    Frame rate : 31.250 FPS (1536 spf)
    Compression mode : Lossy
    Stream size : 423 MiB (5%)
    Title : MVO
    Language : Russian
    Default : No
    Forced : No
    Audio #3
    ID : 4
    Format : DTS
    Format/Info : Digital Theater Systems
    Mode : 16
    Format settings, Endianness : Big
    Codec ID : A_DTS
    Duration : 1 h 32 min
    Bit rate mode : Constant
    Bit rate : 1 509 kb/s
    Channel(s) : 6 channels
    Channel positions : Front: L C R, Side: L R, LFE
    Sampling rate : 48.0 kHz
    Frame rate : 93.750 FPS (512 spf)
    Bit depth : 24 bits
    Compression mode : Lossy
    Stream size : 997 MiB (11%)
    Title : Original
    Language : English
    Default : No
    Forced : No
    Text
    ID : 5
    Format : UTF-8
    Codec ID : S_TEXT/UTF8
    Codec ID/Info : UTF-8 Plain Text
    Duration : 1 h 25 min
    Bit rate : 42 b/s
    Count of elements : 822
    Stream size : 26.9 KiB (0%)
    Title : Full
    Language : English
    Default : No
    Forced : No
    Menu
    00: 00: 00.000 : en: 00: 00: 00.000
    00: 04: 41.656 : en: 00: 04: 41.656
    00: 09: 00.290 : en: 00: 09: 00.290
    00: 15: 41.274 : en: 00: 15: 41.274
    00: 22: 20.214 : en: 00: 22: 20.214
    00: 26: 36.804 : en: 00: 26: 36.804
    00: 30: 03.510 : en: 00: 30: 03.510
    00: 35: 40.138 : en: 00: 35: 40.138
    00: 39: 25.530 : en: 00: 39: 25.530
    00: 43: 58.386 : en: 00: 43: 58.386
    00: 50: 38.786 : en: 00: 50: 38.786
    00: 55: 15.896 : en: 00: 55: 15.896
    00: 58: 59.995 : en: 00: 58: 59.995
    01: 02: 44.177 : en: 01: 02: 44.177
    01: 06: 51.841 : en: 01: 06: 51.841
    01: 11: 18.483 : en: 01: 11: 18.483
    01: 14: 59.787 : en: 01: 14: 59.787
    01: 20: 04.758 : en: 01: 20: 04.758
    01: 26: 02.366 : en: 01: 26: 02.366
    01: 27: 29.244 : en: 01: 27: 29.244
    Скриншоты

    Релиз подготовил: Автор релиза:

    Онлайн видео Темнота


    Размер скачиваемого торрента: 8.51 GB (9141937481 Bytes)

    Темнота/The Darkness (2016) BDRip 1080p от ExKinoRay | L
    загрузка...
    Рейтинг →
     (голосов: 1, оценка 3/5, голосовать можно 1 раз )

    Другие торренты по теме:

  • Темнота наступает / Darkness Falls (2003) BDRip | D
  • Темнота наступает / Darkness Falls (2003) BDRip 720p | D, P, P2
  • Темнота / The Darkness (2016) HDRip | L2
  • Темнота / The Darkness (2016) HDRip от Portablius | L2
  • Темнота / The Darkness (2016) BDRip 720p | L2
  • Темнота / The Darkness (2016) HDRip от MegaPeer | L
  • Темнота / The Darkness (2016) HDRip от MegaPeer | L
  • Темнота / The Darkness (2016) DVD-5 от NovaLan| L


    • Комментарии (0):

      Информация

      Информация

        Посетители, находящиеся в группе Гости, не могут оставлять комментарии в данной новости.

        ↓ Меню



        ↓ Опрос

        А Вы добавили сайт в закладки?
        Да
        Не


        Top 10 за месяц (Фильмы)