.
Авторизация | Регистрация
» » Сезонники / Temps (2016) WEB-DL 720p | L скачать торрент бесплатно




    Сезонники / Temps (2016) WEB-DL 720p | L скачать торрент бесплатно

    Опубликовал: Админ | Дата: 29-08-2016, 05:00 | Просмотров: 40



    Детально о кино
    Русское название: Сезонники
    Русское название в мировом прокате: Temps
    Создали в: 2016
    Категория жанра: мелодрама, комедия
    Главный режиссер: Райан Сэйдж

    Актеры
    Грант Розенмейер, Линдси Шоу, Рейд Юинг, Иден Шер, Кристофер Бауэр, Алекса Гьюффре, Дэвид Карзелл, Коринн Чуи, Селия Финкельштейн, Clayton Froning
    Слоган: Минимальная зарплата, минимальная ответственность

    Сюжет фильма
    Сюжет основан на истории тихого приятного молодого человека, работающего помощником в офисе, не стремящегося к карьерному росту и высокому заработку, благодаря чему у него складываются хорошие взаимоотношения с окружающими. Знакомство с новой сотрудницей изменяет его отношение к себе и коллегам: амбициозная, серьезно настроенная Стефани, энергично пробивающаяся по служебной лестнице, сводит парня с ума, заставляя пересмотреть приоритеты и заняться собственным развитием.

    Снималось в: США/Grandex Productions, RKM 29
    Время просмотра: 01: 25: 30
    Перевод текста: Любительский (многоголосный закадровый) RecentFilms
    Файл
    Качество фильма: WEB-DL 720p
    Тип видео: MKV
    Информация о видео: AVC, 3159 Kb/s, 1280x544
    Информация о звуке: Russian: AC3, 192 Кb/s (2 ch), English: AAC, 155 Kb/s (2 ch)
    Субтитры: English
    Дополнительно: Сохранены оригинальные главы (чаптеры)


    Релиз подготовил:
    MediaInfo:
    Format : Matroska
    Format version : Version 4/Version 2
    File size : 2.10 GiB
    Duration : 1 h 25 min
    Overall bit rate : 3 508 kb/s
    Movie name : Rip by basma4i
    Encoded date : UTC 2016-08-24 11: 33: 53
    Writing application : mkvmerge v9.3.1 (;Mask Machine;) 64bit
    Writing library : libebml v1.3.4 + libmatroska v1.4.5
    Video
    ID : 1
    Format : AVC
    Format/Info : Advanced Video Codec
    Format profile : High@L4.1
    Format settings, CABAC : Yes
    Format settings, ReFrames : 12 frames
    Codec ID : V_MPEG4/ISO/AVC
    Duration : 1 h 25 min
    Bit rate : 3 159 kb/s
    Width : 1 280 pixels
    Height : 544 pixels
    Display aspect ratio : 2.35: 1
    Frame rate mode : Constant
    Frame rate : 23.976 (23976/1000) FPS
    Color space : YUV
    Chroma subsampling : 4: 2: 0
    Bit depth : 8 bits
    Scan type : Progressive
    Bits/(Pixel*Frame) : 0.189
    Stream size : 1.89 GiB (90%)
    Language : English
    Default : Yes
    Forced : No
    Audio #1
    ID : 2
    Format : AC-3
    Format/Info : Audio Coding 3
    Mode extension : CM (complete main)
    Format settings, Endianness : Big
    Codec ID : A_AC3
    Duration : 1 h 25 min
    Bit rate mode : Constant
    Bit rate : 192 kb/s
    Channel(s) : 2 channels
    Channel positions : Front: L R
    Sampling rate : 48.0 kHz
    Frame rate : 31.250 FPS (1536 spf)
    Compression mode : Lossy
    Stream size : 117 MiB (5%)
    Language : Russian
    Default : Yes
    Forced : No
    Audio #2
    ID : 3
    Format : AAC
    Format/Info : Advanced Audio Codec
    Format profile : LC
    Codec ID : A_AAC
    Duration : 1 h 25 min
    Bit rate : 155 kb/s
    Channel(s) : 2 channels
    Channel positions : Front: L R
    Sampling rate : 48.0 kHz
    Frame rate : 46.875 FPS (1024 spf)
    Compression mode : Lossy
    Stream size : 94.8 MiB (4%)
    Language : English
    Default : No
    Forced : No
    Text
    ID : 4
    Format : UTF-8
    Codec ID : S_TEXT/UTF8
    Codec ID/Info : UTF-8 Plain Text
    Duration : 1 h 20 min
    Bit rate : 74 b/s
    Count of elements : 1405
    Stream size : 44.1 KiB (0%)
    Language : English
    Default : No
    Forced : No
    Menu
    00: 00: 00.000 : en: 1
    00: 10: 35.000 : en: 2
    00: 21: 03.000 : en: 3
    00: 29: 34.000 : en: 4
    00: 40: 07.000 : en: 5
    00: 52: 49.000 : en: 6
    01: 02: 51.000 : en: 7
    01: 12: 04.000 : en: 8
    01: 22: 12.000 : en: 9
    Скриншоты


    Онлайн видео Сезонники


    Размер скачиваемого торрента: 2.10 GB (2249690214 Bytes)

    Сезонники/Temps (2016) WEB-DL 720p | L
    загрузка...
    Рейтинг →
     (голосов: 1, оценка 4/5, голосовать можно 1 раз )

    Другие торренты по теме:



      Комментарии (0):

      Информация

      Информация

        Посетители, находящиеся в группе Гости, не могут оставлять комментарии в данной новости.

        ↓ Меню



        ↓ Опрос

        А Вы добавили сайт в закладки?
        Да
        Не


        Top 10 за неделю (Фильмы)