.
Авторизация | Регистрация
» » Выводок / The Brood (1979) BDRip от Koenig | A скачать торрент бесплатно




    Выводок / The Brood (1979) BDRip от Koenig | A скачать торрент бесплатно

    Опубликовал: Админ | Дата: 29-08-2016, 05:00 | Просмотров: 36



    Детально о кино
    Русское название: Выводок
    Русское название в мировом прокате: The Brood
    Создали в: 1979
    Категория жанра: Ужасы, фантастика
    Главный режиссер: Дэвид Кроненберг

    Актеры
    Оливер Рид, Саманта Эггар, Арт Хиндл, Генри Бекман, Нуала Фицджералд, Синди Хайндз, Сьюзэн Хоган, Гэри МакКихэн

    Сюжет фильма

    Франк Карвет обеспокоен за свою маленькую дочь. Когда он привез Кэндис на выходные из института психоплазматики, где проходит лечение ее мать Нола, то обнаружил раны на теле девочки. Он отвозит Кэндис к матери Нолы, но странное небольшое существо убивает ее, а девочку находят спящей и ничего не помнящей. После очередного убийства полиции удается получить экземпляр таинственного киллера. По его виду становится понятно, что он искусственного происхождения. Так что же творит с людьми доктор Рэглан?

    Снималось в: Канада
    Киностудия: Canadian Film Development Corporation, Elgin International Films Ltd., Mutual Productions Ltd.
    Время просмотра: 01: 32: 12
    Перевод текста: Авторский (Визгунов)
    Файл
    Качество фильма: BDRip(The Brood 1979 BDRemux)
    Информация о видео: XviD, 988 Кбит/с, 656х368, 23.976 кадр/с
    Информация о звуке: MP3, 2 ch, 128 Кбит/с
    MediaInfo
    Общее
    Полное имя : The.Brood.1979.BDRip.avi
    Формат : AVI
    Формат/Информация : Audio Video Interleave
    Размер файла : 742 Мбайт
    Продолжительность : 1 ч. 32 м.
    Общий поток : 1125 Кбит/сек
    Программа кодирования : VirtualDubMod 1.5.10.2 (build 2540/release)
    Библиотека кодирования : VirtualDubMod build 2540/release
    Видео
    Идентификатор : 0
    Формат : MPEG-4 Visual
    Профиль формата : Advanced Simple@L5
    Параметр BVOP формата : 1
    Параметр QPel формата : Нет
    Параметр GMC формата : Без точки перехода
    Параметр матрицы формата : Default (H.263)
    Идентификатор кодека : XVID
    Идентификатор кодека/Подсказка : XviD
    Продолжительность : 1 ч. 32 м.
    Битрейт : 988 Кбит/сек
    Ширина : 656 пикселей
    Высота : 368 пикселей
    Соотношение сторон : 16: 9
    Частота кадров : 23, 976 (23976/1000) кадра/сек
    Цветовое пространство : YUV
    Субдискретизация насыщенности : 4: 2: 0
    Битовая глубина : 8 бит
    Тип развёртки : Прогрессивная
    Метод сжатия : С потерями
    Бит/(Пиксели*Кадры) : 0.171
    Размер потока : 651 Мбайт (88%)
    Библиотека кодирования : XviD 1.2.0.dev47 (UTC 2006-11-01)
    Аудио
    Идентификатор : 1
    Формат : MPEG Audio
    Версия формата : Version 1
    Профиль формата : Layer 3
    Режим : Joint stereo
    Расширение режима : MS Stereo
    Идентификатор кодека : 55
    Идентификатор кодека/Подсказка : MP3
    Продолжительность : 1 ч. 32 м.
    Вид битрейта : Постоянный
    Битрейт : 128 Кбит/сек
    Каналы : 2 канала
    Частота : 48, 0 КГц
    Метод сжатия : С потерями
    Размер потока : 84, 4 Мбайт (11%)
    Выравнивание : Соединение по промежуткам
    Продолжительность промежутка : 42 мс. (1, 00 видеокадр)
    Время предзагрузки промежутка : 504 мс.
    Библиотека кодирования : LAME3.99r
    Залил: Koenig602

    Онлайн видео Выводок


    Размер скачиваемого торрента: 741.99 MB (778033152 Bytes)


    Выводок/The Brood (1979) BDRip от Koenig | A
    загрузка...
    Рейтинг →
     (голосов: 1, оценка 5/5, голосовать можно 1 раз )

    Другие торренты по теме:

  • Выводок / The Brood (1979) BDRip 720p | A скачать через торрент бесплатно
  • Выводок / The Brood скачать через торрент бесплатно


    • Комментарии (0):

      Информация

      Информация

        Посетители, находящиеся в группе Гости, не могут оставлять комментарии в данной новости.

        ↓ Меню



        ↓ Опрос

        А Вы добавили сайт в закладки?
        Да
        Не


        Top 10 за неделю (Фильмы)