.
Авторизация | Регистрация
Хочешь лучшие торренты? Добавь свой email!
Добавить
» » Жан-Клод Ван Джонсон / Jean-Claude Van Johnson (2016) WEBRip 720р | NEON Studio торрент скачать бесплатно




    Жан-Клод Ван Джонсон / Jean-Claude Van Johnson (2016) WEBRip 720р | NEON Studio торрент скачать бесплатно

    Опубликовал: Админ | Дата: 29-08-2016, 05:01 | Просмотров: 32



    Русское название: Жан-Клод Ван Джонсон
    Русское название в мировом прокате: Jean-Claude Van Johnson
    Создали в: 2016
    Категория жанра: комедия
    Главный режиссер: Питер Атенсио

    Актеры

    Жан-Клод Ван Дамм, Кэт Фостер, Мойзес Ариас, Филисия Рашад, Бар Пали, Тим Пепер, Дерен Лерой, Кевин Майкл Уолш, Тейт Флетчер, Стэйси Дейнджер и др.
    Описание сериала:
    Создатели нового сериала Жан-Клод Ван Джонсон пытаются убедить зрителя в том, что на самом деле под всем известной фамилией Ван Дамм скрывается спецагент по фамилии Джонсон, который внешний вид актера использует исключительно для работы под прикрытием и успешного выполнения различных секретных операций. А свое очередное задание Джонсон выполняет, снимаясь в необычной версии Приключений Гекельберри Финна.
    Снималось в: США
    Время просмотра: ~00: 30: 00
    Перевод текста: Любительский (двухголосый) NEON Studio
    Субтитры: Отсутствуют

    Файл
    Тип видео: MKV
    Качество фильма: WEBRip (720p)
    Информация о видео: MPEG-4 AVC, ~ 3500 Кбит/с, 1280x720
    Информация о звуке: 48 kHz, AC3 Dolby Digital, 2/0 (L, R) ch, ~192 kbps
    Релиз группа:

    MediaInfo
    Формат : Matroska
    Версия формата : Version 2
    Размер файла : 806 Мбайт
    Продолжительность : 31 м.
    Общий поток : 3617 Кбит/сек
    Дата кодирования : UTC 2016-08-21 19: 57: 42
    Программа кодирования : mkvmerge v4.9.1 (;Ich will;) сборка от Jul 11 2011 23: 53: 15
    Библиотека кодирования : libebml v1.2.1 + libmatroska v1.1.1
    Видео
    Идентификатор : 1
    Формат : AVC
    Формат/Информация : Advanced Video Codec
    Профиль формата : Main@L5.1
    Параметр CABAC формата : Да
    Параметр ReFrames формата : 1 кадр
    Режим смешивания : Header stripping
    Идентификатор кодека : V_MPEG4/ISO/AVC
    Продолжительность : 31 м.
    Битрейт : 3353 Кбит/сек
    Ширина : 1280 пикселей
    Высота : 720 пикселей
    Соотношение сторон : 16: 9
    Режим частоты кадров : Постоянный
    Частота кадров : 23, 976 (23976/1000) кадра/сек
    Цветовое пространство : YUV
    Субдискретизация насыщенности : 4: 2: 0
    Битовая глубина : 8 бит
    Тип развёртки : Прогрессивная
    Бит/(Пиксели*Кадры) : 0.152
    Размер потока : 747 Мбайт (93%)
    Default : Да
    Forced : Нет
    Аудио
    Идентификатор : 2
    Формат : AC-3
    Формат/Информация : Audio Coding 3
    Расширение режима : CM (complete main)
    Параметр Endianness формата : Big
    Режим смешивания : Header stripping
    Идентификатор кодека : A_AC3
    Продолжительность : 31 м.
    Вид битрейта : Постоянный
    Битрейт : 192 Кбит/сек
    Каналы : 2 канала
    Расположение каналов : Front: L R
    Частота : 48, 0 КГц
    Частота кадров : 31, 250 кадров/сек (1536 spf)
    Метод сжатия : С потерями
    Размер потока : 42, 8 Мбайт (5%)
    Default : Да
    Forced : Нет
    Внимание! Раздача ведётся путём добавления новых серий
    Внимание! Раздача ведётся путём добавления новых серий; при каждом добавлении создаётся новый торрент. Чтобы начать докачку новой серии, пользователям необходимо сделать следующее:
    (1) остановить скачивание,
    (2) удалить старый торрент у себя из клиента (старые серии удалять не надо),
    (3) скачать новый торрент и запустить его у себя в клиенте вместо старого, при этом указать клиенту путь в старую папку куда и должно происходить скачивание новых серий.
    Ваш клиент при этом должен произвести хеширование (проверку) старой папки (если не производит сам - помогите ему сделать это), и будет докачивать только те серии которых у вас ещё нет. Старые серии при этом не удаляются, а продолжают раздаваться!
    Eсли вы уже удалили старые серии, то предотвратить повторную закачку старых серий можно, отжав галочку в соответсвующих местах при запуске нового торрента. По возможности, желательно не удалять старые серии как можно дольше чтобы релизёр не столько продолжал раздавать старые серии, а смог сконцентрироваться на новых.
    Скриншоты

    Залил: SPARTA111

    Онлайн видео Жан-Клод Ван Джонсон


    Размер скачиваемого торрента: 805.99 MB (845142924 Bytes)

    Жан-Клод Ван Джонсон/Jean-Claude Van Johnson (2016) WEBRip 720р | NEON Studio
    загрузка...
    Рейтинг →
     (голосов: 1, оценка 5/5, голосовать можно 1 раз )

    Другие торренты по теме:

  • Жан-Клод Ван Джонсон / Jean-Claude Van Johnson (2016) WEBRip 720р | NEON Studio
  • Жан-Клод Ван Джонсон / Jean-Claude Van Johnson (2016) WEBRip от KinoRay Lord32x Studio | L1
  • Жан-Клод Ван Джонсон / Jean-Claude Van Johnson (2016) WEBRip | NEON Studio
  • Жан-Клод Ван Джонсон / Jean-Claude Van Johnson (2016) WEBRip | Newstudio
  • Жан-Клод Ван Джонсон / Jean-Claude Van Johnson (2016) WEBRip 1080p | Jaskier
  • Жан-Клод Ван Джонсон / Jean-Claude Van Johnson (2016) WEBRip | Jaskier


    • Комментарии (0):

      Информация

      Информация

        Посетители, находящиеся в группе Гости, не могут оставлять комментарии в данной новости.

        ↓ Меню



        ↓ Опрос

        А Вы добавили сайт в закладки?
        Да
        Не


        Top 10 за месяц (Фильмы)