.
Авторизация | Регистрация
» » Белый мавр, или Интимные истории о моих соседях (2012) WEB-DLRip от ImperiaFilm | КПК скачать торрент бесплатно




    Белый мавр, или Интимные истории о моих соседях (2012) WEB-DLRip от ImperiaFilm | КПК скачать торрент бесплатно

    Опубликовал: Админ | Дата: 29-08-2016, 05:01 | Просмотров: 51



    Детально о кино
    Русское название: Белый мавр, или Интимные истории о моих соседях
    Создали в: 2012
    Категория жанра: Драма, комедия
    Главный режиссер: Дмитрий Фикс

    Актеры
    Вячеслав Разбегаев, Галина Петрова, Андрей Соколов, Сергей Астахов, Александр Галибин, Екатерина Стриженова, Эвклид Кюрдзидис, Жанна Эппле, Игорь Верник, Олеся Железняк, Анна Якунина, Евгения Морозова, Полина Райкина

    Сюжет фильма

    Это ироничная, местами откровенно смешная и в тоже время грустная история о буднях так называемого верхнего среднего класса — воспетой в Америке Вуди Алленом, но пока еще весьма малочисленной в нашей стране прослойке состоятельных граждан. Помимо завидного достатка, всех этих погрязших в экзистенциальных сомнениях и банальных адюльтерах бизнесменов, кинозвезд, модных режиссеров, хозяев стоматологических клиник и их прекрасных жен объединяет еще и звонкое пионерское прошлое, преодолеть которое подчас оказывается гораздо сложнее, чем отгрохать особняк на Новой Риге…

    Снималось в: Россия
    Киностудия: Мотор Фильм
    Время просмотра: 01: 35: 21
    Перевод текста: Не требуется
    Файл
    Кодек для видео: MP4
    Качество фильма: WEB-DLRip | КПК
    Информация о видео: MPEG4 Video (H264) 448x240 (1.85: 1), 25fps, 350kbps, 0.13 Bits/Pixel
    Информация о звуке: AAC, 44100Hz, 2ch, 125kbps
    Субтитры: Отсутствуют
    Семпл
    MI
    General
    Complete name : E: Изготовление рипаBelyy mavr, ili Intimnye istorii o moikh sosedyakh.2012..mp4
    Format : MPEG-4
    Format profile : Base Media
    Codec ID : isom
    File size : 329 MiB
    Duration : 1h 36mn
    Overall bit rate mode : Variable
    Overall bit rate : 478 Kbps
    Encoded date : UTC 2016-08-26 14: 57: 47
    Tagged date : UTC 2016-08-26 14: 57: 47
    Video
    ID : 1
    Format : AVC
    Format/Info : Advanced Video Codec
    Format profile : Baseline@L3
    Format settings, CABAC : No
    Format settings, ReFrames : 1 frame
    Codec ID : avc1
    Codec ID/Info : Advanced Video Coding
    Duration : 1h 36mn
    Bit rate : 350 Kbps
    Maximum bit rate : 972 Kbps
    Width : 448 pixels
    Height : 240 pixels
    Display aspect ratio : 1.85: 1
    Frame rate mode : Constant
    Frame rate : 25.000 fps
    Color space : YUV
    Chroma subsampling : 4: 2: 0
    Bit depth : 8 bits
    Scan type : Progressive
    Bits/(Pixel*Frame) : 0.130
    Stream size : 241 MiB (73%)
    Title : Imported with GPAC 0.4.6-DEV (internal rev. 5)
    Writing library : x264 core 67 r1165M 6841c5e
    Encoding settings : cabac=0/ref=1/deblock=1: 0: 0/analyse=0x1: 0/me=hex/subme=6/psy_rd=1.0: 0.0/mixed_ref=0/me_range=16/chroma_me=1/trellis=0/8x8dct=0/cqm=0/deadzone=21, 11/chroma_qp_offset=-2/threads=3/nr=0/decimate=1/mbaff=0/bframes=0/keyint=250/keyint_min=25/scenecut=40/rc=2pass/bitrate=350/ratetol=1.0/qcomp=0.60/qpmin=10/qpmax=51/qpstep=4/cplxblur=20.0/qblur=0.5/vbv_maxrate=1500/vbv_bufsize=2000/ip_ratio=1.40/aq=1: 1.00
    Encoded date : UTC 2016-08-26 14: 57: 47
    Tagged date : UTC 2016-08-26 14: 58: 40
    Audio
    ID : 2
    Format : AAC
    Format/Info : Advanced Audio Codec
    Format profile : LC
    Codec ID : 40
    Duration : 1h 36mn
    Bit rate mode : Variable
    Bit rate : 126 Kbps
    Maximum bit rate : 162 Kbps
    Channel(s) : 2 channels
    Channel positions : Front: L R
    Sampling rate : 44.1 KHz
    Compression mode : Lossy
    Stream size : 86.7 MiB (26%)
    Title : Imported with GPAC 0.4.6-DEV (internal rev. 5)
    Encoded date : UTC 2016-08-26 14: 58: 29
    Tagged date : UTC 2016-08-26 14: 58: 40
    Скриншоты

    Релиз подготовил:
    Залил: surikmas
    Размер скачиваемого торрента: 329.43 MB (345436468 Bytes)

    Белый мавр, или Интимные истории о моих соседях (2012) WEB-DLRip от ImperiaFilm | КПК
    загрузка...
    Рейтинг →
     (голосов: 1, оценка 3/5, голосовать можно 1 раз )

    Другие торренты по теме:

  • Белый мавр, или Интимные истории о моих соседях (2012) WEB-DLRip-AVC от Files-x скачать торрент бесплатно
  • Белый мавр, или Интимные истории о моих соседях (2012) WEB-DL 720p скачать торрент бесплатно
  • Белый мавр, или Интимные истории о моих соседях (2012) WEB-DLRip от ImperiaFilm скачать торрент бесплатно


    • Комментарии (0):

      Информация

      Информация

        Посетители, находящиеся в группе Гости, не могут оставлять комментарии в данной новости.

        ↓ Меню



        ↓ Опрос

        А Вы добавили сайт в закладки?
        Да
        Не


        Top 10 за неделю (Фильмы)