.
Авторизация | Регистрация
» » Хранилище 13 / Warehouse 13 (2009-2014) WEB-DLRip | LostFilm скачать торрент бесплатно




    Хранилище 13 / Warehouse 13 (2009-2014) WEB-DLRip | LostFilm скачать торрент бесплатно

    Опубликовал: Админ | Дата: 29-08-2016, 13:45 | Просмотров: 88



    Детально о кино
    Русское название: Хранилище 13
    Русское название в мировом прокате: Warehouse 13
    Создали в: 2009
    Категория жанра: Фантастика, драма, детектив
    Главный режиссер: Тауния Маккирнан, Константин Макрис, Стивен Серджик

    Актеры
    Эдди МакКлинток, Джоэнн Келли, Сол Рубинек, Дженелл Уильямс, Эллисон Скальотти, Си Си Эйч Паундер, Саймон Рейнольдс, Аарон Эшмор, Джейми Мюррэй, Саша Ройз

    Сюжет фильма

    После спасения жизни президента двух агентов Секретной службы переводят на секретный объект в штате Южная Дакота. Там содержатся сверхъестественные вещи, которые правительство США собирало в течение столетий. Их новое назначение — вернуть часть пропавших вещей и расследовать сообщения о новых.

    Снималось в: США
    Киностудия: SyFy, Universal Cable Productions
    Время просмотра: ~ 00: 43: 00
    Перевод текста: Профессиональный (многоголосый, закадровый) LostFilm
    Файл
    Качество фильма: WEB-DLRip
    Тип видео: AVI
    Информация о видео: 704x400 (1.76: 1), 23.976 fps, XviD build 73 ~1799 kbps avg, 0.27 bit/pixel
    Информация о звуке: 48 kHz, AC3 Dolby Digital, 3/2 (L, C, R, l, r) + LFE ch, ~384 kbps
    Субтитры: отсутствуют
    Релиз подготовил: All Films by Teko
    Скриншоты

    MI
    Формат : AVI
    Формат/Информация : Audio Video Interleave
    Размер файла : 1, 34 Гбайт
    Продолжительность : 1 ч. 27 м.
    Общий поток : 2193 Кбит/сек
    Программа кодирования : VirtualDubMod 1.5.10.3 | www.virtualdub-fr.org || (build 2550/release)
    Библиотека кодирования : VirtualDubMod build 2550/release
    Видео
    Идентификатор : 0
    Формат : MPEG-4 Visual
    Профиль формата : Advanced Simple@L5
    Параметр BVOP формата : 2
    Параметр QPel формата : Нет
    Параметр GMC формата : Без точки перехода
    Параметр матрицы формата : Выборочная
    Идентификатор кодека : XVID
    Идентификатор кодека/Подсказка : XviD
    Продолжительность : 1 ч. 27 м.
    Битрейт : 1800 Кбит/сек
    Ширина : 704 пикселя
    Высота : 400 пикселей
    Соотношение сторон : 16: 9
    Частота кадров : 23, 976 кадра/сек
    Цветовое пространство : YUV
    Субдискретизация насыщенности : 4: 2: 0
    Битовая глубина : 8 бит
    Тип развёртки : Прогрессивная
    Метод сжатия : С потерями
    Бит/(Пиксели*Кадры) : 0.267
    Размер потока : 1, 10 Гбайт (82%)
    Библиотека кодирования : XviD 73
    Аудио
    Идентификатор : 1
    Формат : AC-3
    Формат/Информация : Audio Coding 3
    Расширение режима : CM (complete main)
    Параметр Endianness формата : Big
    Идентификатор кодека : 2000
    Продолжительность : 1 ч. 27 м.
    Вид битрейта : Постоянный
    Битрейт : 384 Кбит/сек
    Каналы : 6 каналов
    Расположение каналов : Front: L C R, Side: L R, LFE
    Частота : 48, 0 КГц
    Битовая глубина : 16 бит
    Метод сжатия : С потерями
    Размер потока : 241 Мбайт (18%)
    Выравнивание : Разделение по промежуткам
    Продолжительность промежутка : 42 мс. (1, 00 видеокадр)
    Время предзагрузки промежутка : 500 мс.

    Залил: qqss44

    Онлайн видео Хранилище 13


    Размер скачиваемого торрента: 43.41 GB (46613786624 Bytes)

    Хранилище 13/Warehouse 13 (2009-2014) WEB-DLRip | LostFilm
    загрузка...
    Рейтинг →
     (голосов: 1, оценка 5/5, голосовать можно 1 раз )

    Другие торренты по теме:

  • Хранилище 13 / Warehouse 13 (2012-2013) WEB-DLRip 720p, HDTVRip 720p | LostFilm торрент скачать бесплатно
  • Хранилище 13 / Warehouse 13 (2010) WEB-DLRip | КПК | LostFilm торрент скачать бесплатно
  • Хранилище 13 / Warehouse 13 (2012) WEB-DLRip | КПК | LostFilm торрент скачать бесплатно
  • Хранилище 13 / Warehouse 13 (2009-2013) WEB-DLRip | LostFilm скачать через торрент бесплатно
  • Хранилище 13 / Warehouse 13 (2014) WEB-DL 720p от HDClub скачать через торрент бесплатно
  • Хранилище 13 / Warehouse 13 (2014) WEB-DL 1080p от HDClub скачать через торрент бесплатно
  • Хранилище 13 / Warehouse 13 (2014) WEB-DL 1080р | LostFilm скачать через торрент бесплатно
  • Хранилище 13 / Warehouse 13 (2014) WEB-DLRip | LostFilm скачать через торрент бесплатно


    • Комментарии (0):

      Информация

      Информация

        Посетители, находящиеся в группе Гости, не могут оставлять комментарии в данной новости.

        ↓ Меню



        ↓ Опрос

        А Вы добавили сайт в закладки?
        Да
        Не


        Top 10 за неделю (Фильмы)