.
Авторизация | Регистрация
» » Трудная мишень 2 / Hard Target 2 (2016) BDRemux 1080p от ExKinoRay | Лицензия скачать торрент бесплатно




    Трудная мишень 2 / Hard Target 2 (2016) BDRemux 1080p от ExKinoRay | Лицензия скачать торрент бесплатно

    Опубликовал: Админ | Дата: 29-08-2016, 13:45 | Просмотров: 83



    Детально о кино
    Русское название: Трудная мишень 2
    Русское название в мировом прокате: Hard Target 2
    Создали в: 2016
    Категория жанра: Боевик, триллер
    Главный режиссер: Роэль Рейн

    Актеры
    Скотт Эдкинс, Роберт Неппер, Рона Митра, Темуэра Моррисон, Адам Саундерс, Джэйми Тимони, Питер Харди, Шон Кинэн
    О фильме:
    Продолжение культового экшн-триллера 1993 года о подпольных игрищах, где проплаченные охотники травят, как дичь, похищенных людей. Новой мишенью становится опальный мастер боевых искусств, который соблазнился деньгами, даже не подозревая, на что подписывается. Но и его преследователи еще не знают, с кем связались.

    Снималось в: США
    Киностудия: Living Films, Universal 1440 Entertainment
    Время просмотра: 01: 43: 33
    Перевод текста: Дублированный | Лицензия Blu-Ray CEE
    Файл
    Кодек для видео: MPEG-4
    Качество фильма: BDRemux 1080p
    Информация о видео: 1920x1080, 34.5 Mbit/s, 23.976 fps
    Информация о звуке:
    Информация о звуке #01: 48 kHz, AC3, 5.1, 448 Kbps | Дублированный | Лицензия Blu-Ray CEE |
    Информация о звуке #02: 48 kHz, DTS-HD MA, 5.1, 4438 kbps | Оригинал |
    Субтитры: Английские

    MI
    General
    Unique ID : 183407810117027206940137319824310523819 (0x89FB0F31D0FBF3918CD9FDF55F95D7AB)
    Complete name : G: VideoHard.Target.2.2016.BDREMUX.1080p.ExKinoRay.mkv
    Format : Matroska
    Format version : Version 4/Version 2
    File size : 28.5 GiB
    Duration : 1 h 43 min
    Overall bit rate mode : Variable
    Overall bit rate : 39.4 Mb/s
    Movie name : Hard.Target.2.2016.BDREMUX.1080p.ExKinoRay
    Encoded date : UTC 2016-08-28 06: 56: 48
    Writing application : mkvmerge v8.3.0 (;Over the Horizon;) 64bit
    Writing library : libebml v1.3.1 + libmatroska v1.4.2
    Video
    ID : 1
    Format : AVC
    Format/Info : Advanced Video Codec
    Format profile : High@L4.1
    Format settings, CABAC : Yes
    Format settings, ReFrames : 4 frames
    Codec ID : V_MPEG4/ISO/AVC
    Duration : 1 h 43 min
    Bit rate mode : Variable
    Bit rate : 34.5 Mb/s
    Maximum bit rate : 37.0 Mb/s
    Width : 1 920 pixels
    Height : 1 080 pixels
    Display aspect ratio : 16: 9
    Frame rate mode : Constant
    Frame rate : 23.976 (24000/1001) FPS
    Color space : YUV
    Chroma subsampling : 4: 2: 0
    Bit depth : 8 bits
    Scan type : Progressive
    Bits/(Pixel*Frame) : 0.694
    Stream size : 24.9 GiB (88%)
    Language : English
    Default : Yes
    Forced : No
    Audio #1
    ID : 2
    Format : AC-3
    Format/Info : Audio Coding 3
    Mode extension : CM (complete main)
    Format settings, Endianness : Big
    Codec ID : A_AC3
    Duration : 1 h 43 min
    Bit rate mode : Constant
    Bit rate : 448 kb/s
    Channel(s) : 6 channels
    Channel positions : Front: L C R, Side: L R, LFE
    Sampling rate : 48.0 kHz
    Frame rate : 31.250 FPS (1536 spf)
    Compression mode : Lossy
    Stream size : 332 MiB (1%)
    Language : Russian
    Default : Yes
    Forced : No
    Audio #2
    ID : 3
    Format : DTS
    Format/Info : Digital Theater Systems
    Format profile : MA/Core
    Mode : 16
    Format settings, Endianness : Big
    Codec ID : A_DTS
    Duration : 1 h 43 min
    Bit rate mode : Variable/Constant
    Bit rate : 4 438 kb/s/1 509 kb/s
    Channel(s) : 6 channels
    Channel positions : Front: L C R, Side: L R, LFE
    Sampling rate : 48.0 kHz
    Frame rate : 93.750 FPS (512 spf)
    Bit depth : 24 bits
    Compression mode : Lossless/Lossy
    Stream size : 3.21 GiB (11%)
    Language : English
    Default : No
    Forced : No
    Text #1
    ID : 4
    Format : UTF-8
    Codec ID : S_TEXT/UTF8
    Codec ID/Info : UTF-8 Plain Text
    Duration : 1 h 39 min
    Bit rate : 34 b/s
    Count of elements : 873
    Stream size : 25.3 KiB (0%)
    Title : Full
    Language : English
    Default : No
    Forced : No
    Text #2
    ID : 5
    Format : UTF-8
    Codec ID : S_TEXT/UTF8
    Codec ID/Info : UTF-8 Plain Text
    Duration : 1 h 41 min
    Bit rate : 38 b/s
    Count of elements : 1055
    Stream size : 28.9 KiB (0%)
    Title : SDH
    Language : English
    Default : No
    Forced : No
    Menu
    00: 00: 00.000 : en: 00: 00: 00.000
    00: 04: 41.656 : en: 00: 04: 41.656
    00: 09: 00.290 : en: 00: 09: 00.290
    00: 15: 41.274 : en: 00: 15: 41.274
    00: 22: 20.214 : en: 00: 22: 20.214
    00: 26: 36.804 : en: 00: 26: 36.804
    00: 30: 03.510 : en: 00: 30: 03.510
    00: 35: 40.138 : en: 00: 35: 40.138
    00: 39: 25.530 : en: 00: 39: 25.530
    00: 43: 58.386 : en: 00: 43: 58.386
    00: 50: 38.786 : en: 00: 50: 38.786
    00: 55: 15.896 : en: 00: 55: 15.896
    00: 58: 59.995 : en: 00: 58: 59.995
    01: 02: 44.177 : en: 01: 02: 44.177
    01: 06: 51.841 : en: 01: 06: 51.841
    01: 11: 18.483 : en: 01: 11: 18.483
    01: 14: 59.787 : en: 01: 14: 59.787
    01: 20: 04.758 : en: 01: 20: 04.758
    01: 26: 02.366 : en: 01: 26: 02.366
    01: 27: 29.244 : en: 01: 27: 29.244
    Скриншоты

    Релиз подготовил: Автор релиза:

    Онлайн видео Трудная мишень 2


    Размер скачиваемого торрента: 28.48 GB (30583866415 Bytes)

    Трудная мишень 2/Hard Target 2 (2016) BDRemux 1080p от ExKinoRay | Лицензия
    загрузка...
    Рейтинг →
     (голосов: 1, оценка 4/5, голосовать можно 1 раз )

    Другие торренты по теме:

  • Трудная мишень / Hard Target (1993) HDTVRip-AVC | P, А торрент скачать бесплатно
  • OST - Трудная мишень / Hard Target (1993) MP3 торрент скачать бесплатно
  • Трудная мишень / Hard Target (1993) BDRip-AVC от 0ptimus | P торрент скачать бесплатно
  • Трудная мишень / Hard Target (1993) BDRemux от Freeisland торрент скачать бесплатно
  • Трудная мишень / Hard Target (1993) BDRip от HQCLUB скачать через торрент бесплатно
  • Трудная мишень / Тяжелая мишень / Hard Target (1993) BDRip от bittracker | D, P, A торрент скачать бесплатно
  • Трудная мишень / Hard Target (1993) BDRip | A скачать торрент бесплатно
  • Трудная мишень 2 / Hard Target 2 (2016) BDRip 1080p от ExKinoRay | Лицензия скачать торрент бесплатно


    • Комментарии (0):

      Информация

      Информация

        Посетители, находящиеся в группе Гости, не могут оставлять комментарии в данной новости.

        ↓ Меню



        ↓ Опрос

        А Вы добавили сайт в закладки?
        Да
        Не


        Top 10 за неделю (Фильмы)