.
Авторизация | Регистрация
Хочешь лучшие торренты? Добавь свой email!
Добавить
» » Черепашки-ниндзя 2 / Teenage Mutant Ninja Turtles: Out of the Shadows (2016) WEB-DLRip-AVC | iTunes торрент скачать бесплатно




    Черепашки-ниндзя 2 / Teenage Mutant Ninja Turtles: Out of the Shadows (2016) WEB-DLRip-AVC | iTunes торрент скачать бесплатно

    Опубликовал: Админ | Дата: 31-08-2016, 05:00 | Просмотров: 41




    Детально о кино
    Русское название: Черепашки-ниндзя 2
    Русское название в мировом прокате: Teenage Mutant Ninja Turtles: Out of the Shadows
    Создали в: 2016
    Категория жанра: фантастика, боевик, комедия, приключения
    Главный режиссер: Дэйв Грин

    Актеры
    Меган Фокс, Уилл Арнетт, Лора Линни, Стивен Амелл, Ноэль Фишер, Джереми Ховард, Пит Пложек, Алан Ричсон, Тайлер Перри, Брайан Ти

    Сюжет фильма

    Долгое время черепашки-ниндзя скрывались от людей в лабиринтах городской канализации. На протяжении нескольких лет учитель Сплинтер обучал их боевым искусствам и прививал им чувство справедливости. В один прекрасный момент им пришлось подняться наверх, чтобы спасти Нью-Йорк от Шредера, предводителя Клана Футов, захватившего власть в Нью-Йорке. Вместе с отважным репортером Эйприл и ее оператором Верном, бесстрашные воины смогли одержать победу и очистить любимый город от преступности. Леонардо, Микеланджело, Рафаэль и Донателло нашли свое предназначение в этом мире и стали защитниками своего города. Они навели порядок в Нью-Йорке и с чистой совестью могли отправиться на покой, но однажды им вновь пришлось столкнуться с могущественным врагом, угрожающим их городу.

    Снималось в: США, Гонконг, Китай, Канада
    Время просмотра: 01: 52: 15
    Тип перевода: Дублированное iTunes
    Файл
    Тип видео: MKV
    Качество фильма: WEB-DLRip-AVC
    Информация о видео: 760x316, MPEG-4 AVC, ~860 kbps
    Aудио: AAC, 2 ch, ~64.00 kbps
    Субтитры: Russian (Forced, iTunes), Russian (iTunes)
    M/I
    General
    Unique ID : 237354239832523875373617229611400722307 (0xB290C387E09557118DF9B0E230F87783)
    Complete name : D: Черепашки-ниндзя 2.(2016).WEB-DLRip-AVC.-=DoMiNo=-.mkv
    Format : Matroska
    Format version : Version 4/Version 2
    File size : 750 MiB
    Duration : 1 h 52 min
    Overall bit rate : 934 kb/s
    Movie name : Черепашки-ниндзя 2
    Encoded date : UTC 2016-08-30 12: 34: 07
    Writing application : mkvmerge v8.3.0 (;Over the Horizon;) 64bit
    Writing library : libebml v1.3.1 + libmatroska v1.4.2/Lavf56.25.101
    Cover : Yes
    Attachments : cover.png
    ACTORS : Меган Фокс, Уилл Арнетт, Лора Линни, Стивен Амелл, Ноэль Фишер, Джереми Ховард, Пит Пложек, Алан Ричсон, Тайлер Перри, Брайан Ти, Даниил Эльдаров, показать всех
    COUNTRY : США, Гонконг, Китай, Канада
    DATE : 2016
    DIRECTOR : Дэйв Грин
    ENCODING_INFO : MATROSKA, WEBM MKV/H264 X264 VBR-2P 865kbps Custom/AC3 AAC CBR 64kbps HE
    GENRE : фантастика, боевик, комедия, приключения
    IMDB_RATING : 6.30
    ITUNEXTC : mpaa|PG-13|300|
    ORIGINAL_TITLE : Teenage Mutant Ninja Turtles: Out of the Shadows
    PRODUCER : Эндрю Форм, Брэдли Фуллер, Скотт Медник
    RATING : 6.309
    SYNOPSIS : Долгое время черепашки-ниндзя скрывались от людей в лабиринтах городской канализации. На протяжении нескольких лет учитель Сплинтер обучал их боевым искусствам и прививал им чувство справедливости. В один прекрасный момент им пришлось подняться наверх, чтобы спасти Нью-Йорк от Шредера, предводителя Клана Футов, захватившего власть в Нью-Йорке. Вместе с отважным репортером Эйприл и ее оператором Верном, бесстрашные воины смогли одержать победу и очистить любимый город от преступности. Леонардо, Микеланджело, Рафаэль и Донателло нашли свое предназначение в этом мире и стали защитниками своего города. Они навели порядок в Нью-Йорке и с чистой совестью могли отправиться на покой, но однажды им вновь пришлось столкнуться с могущественным врагом, угрожающим их городу.
    WRITER : Джош Аппелбаум, Андре Немец, Питер Лэрд
    Video
    ID : 1
    Format : AVC
    Format/Info : Advanced Video Codec
    Format profile : High@L4.1
    Format settings, CABAC : Yes
    Format settings, ReFrames : 12 frames
    Codec ID : V_MPEG4/ISO/AVC
    Duration : 1 h 52 min
    Bit rate : 865 kb/s
    Width : 760 pixels
    Height : 316 pixels
    Display aspect ratio : 2.40: 1
    Frame rate mode : Constant
    Frame rate : 24.000 FPS
    Color space : YUV
    Chroma subsampling : 4: 2: 0
    Bit depth : 8 bits
    Scan type : Progressive
    Bits/(Pixel*Frame) : 0.150
    Stream size : 695 MiB (93%)
    Writing library : x264 core 148 r2597M e86f3a1
    Encoding settings : cabac=1/ref=12/deblock=1: -3: -3/analyse=0x3: 0x133/me=umh/subme=11/psy=1/psy_rd=1.00: 0.20/mixed_ref=1/me_range=16/chroma_me=1/trellis=2/8x8dct=1/cqm=0/deadzone=21, 11/fast_pskip=0/chroma_qp_offset=-3/threads=6/lookahead_threads=1/sliced_threads=0/nr=0/decimate=1/interlaced=0/bluray_compat=0/constrained_intra=0/bframes=11/b_pyramid=2/b_adapt=2/b_bias=0/direct=3/weightb=1/open_gop=0/weightp=2/keyint=240/keyint_min=24/scenecut=40/intra_refresh=0/rc=2pass/mbtree=0/bitrate=865/ratetol=1.0/qcomp=0.60/qpmin=0/qpmax=69/qpstep=4/cplxblur=20.0/qblur=0.5/ip_ratio=1.40/pb_ratio=1.30/aq=1: 1.00
    Language : English
    Default : Yes
    Forced : No
    Color range : Limited
    Color primaries : BT.709
    Transfer characteristics : BT.709
    Matrix coefficients : BT.709
    Audio
    ID : 2
    Format : AAC
    Format/Info : Advanced Audio Codec
    Format profile : HE-AAC/LC
    Codec ID : A_AAC
    Duration : 1 h 52 min
    Bit rate : 64.0 kb/s
    Channel(s) : 2 channels
    Channel positions : Front: L R
    Sampling rate : 48.0 kHz/24.0 kHz
    Frame rate : 23.438 FPS (1024 spf)
    Compression mode : Lossy
    Stream size : 51.3 MiB (7%)
    Title : DUB, iTunes
    Language : Russian
    Default : Yes
    Forced : No
    Text #1
    ID : 3
    Format : UTF-8
    Codec ID : S_TEXT/UTF8
    Codec ID/Info : UTF-8 Plain Text
    Duration : 1 h 41 min
    Bit rate : 0 b/s
    Count of elements : 11
    Stream size : 371 Bytes (0%)
    Title : Forced, iTunes
    Language : Russian
    Default : Yes
    Forced : No
    Text #2
    ID : 4
    Format : UTF-8
    Codec ID : S_TEXT/UTF8
    Codec ID/Info : UTF-8 Plain Text
    Duration : 1 h 43 min
    Bit rate : 95 b/s
    Count of elements : 1371
    Stream size : 72.5 KiB (0%)
    Title : iTunes
    Language : Russian
    Default : No
    Forced : No
    Menu
    00: 00: 00.000 : : 1
    00: 05: 54.000 : : 2
    00: 12: 17.000 : : 3
    00: 18: 52.000 : : 4
    00: 26: 37.000 : : 5
    00: 33: 13.000 : : 6
    00: 38: 55.000 : : 7
    00: 44: 10.000 : : 8
    00: 49: 39.000 : : 9
    00: 55: 39.000 : : 10
    01: 02: 00.000 : : 11
    01: 04: 51.000 : : 12
    01: 14: 31.000 : : 13
    01: 21: 17.000 : : 14
    01: 28: 09.000 : : 15
    01: 36: 57.000 : : 16
    01: 41: 51.000 : : 17
    01: 46: 20.000 : : 18
    Скриншоты


    Онлайн видео Черепашки-ниндзя 2


    Размер скачиваемого торрента: 749.76 MB (786184887 Bytes)

    Черепашки-ниндзя 2/Teenage Mutant Ninja Turtles: Out of the Shadows (2016) WEB-DLRip-AVC | iTunes
    загрузка...
    Рейтинг →
     (голосов: 1, оценка 3/5, голосовать можно 1 раз )

    Другие торренты по теме:

  • Черепашки-ниндзя / Teenage Mutant Ninja Turtles (1990) НDRip от Scarabey | P
  • Черепашки-ниндзя / Teenage Mutant Ninja Turtles / TMNT (2012-2013) WEB-DLRip
  • Черепашки Ниндзя / Teenage Mutant Ninja Turtles (2012) WEB-DLRip | Nickelodeon | iPhone скачать через торрент бесплатно
  • Черепашки-ниндзя / Teenage Mutant Ninja Turtles (2012-2014) WEB-DLRip-AVC 720p
  • Черепашки-ниндзя / Teenage Mutant Ninja Turtles (2013-2014) WEB-DLRip | L
  • Черепашки-ниндзя / Teenage Mutant Ninja Turtles (2014) HD 720p | Тизер скачать через торрент бесплатно
  • Черепашки-ниндзя / Teenage Mutant Ninja Turtles (2013-2014) WEB-DLRip | L
  • Черепашки-ниндзя! / Teenage mutant ninja turtles (2014) Android скачать через торрент бесплатно


    • Комментарии (0):

      Информация

      Информация

        Посетители, находящиеся в группе Гости, не могут оставлять комментарии в данной новости.

        ↓ Меню



        ↓ Опрос

        А Вы добавили сайт в закладки?
        Да
        Не


        Top 10 за месяц (Фильмы)